Сегодня идет свободное скачивание без начисления Download

Смертельное оружие: Квадрология / Lethal Weapon: Collection (1987-1998) BDRip 1080p

Ответить на тему
 
Автор Сообщение

Bot ®

Стаж: 4 года 10 месяцев

Сообщений: 27312

Откуда: СССР

Создавать темы 04-Янв-2017 08:34

[Цитировать]

Жанр: боевик, триллер, криминал
Год выпуска: 1987/1989/1992/1998
Продолжительность: 01:49:37 | 01:54:27 | 01:57:53 | 02:07:23
Режиссёр: Ричард Доннер
Смертельное оружие / Lethal Weapon (1987) BDRip 1080p
Информация о фильме
Название: Смертельное оружие
Оригинальное название: Lethal Weapon
Год выхода: 1987
Жанр: боевик, триллер, комедия, криминал
Режиссер: Ричард Доннер
В ролях: Мэл Гибсон, Дэнни Гловер, Гэри Бьюзи, Митч Райан, Том Аткинс, Дарлен Лав, Трэйси Вульф, Джеки Суонсон, Дэймон Хайнс, Эбони Смит
О фильме:
Лос-анджелесский полицейский Мартин Риггз смел и безрассуден, он буквально лезет под пули, не боясь за свою жизнь. Семьянин Роджер Мертаф старше и осторожнее. Двое полицейских, ветераны Вьетнама, расследуют дело, связанное с подозрительным самоубийством девушки. Нить поисков приводит их к торговцам наркотиками, которые также оказываются ветеранами вьетнамской войны, сплоченными в крепкую преступную организацию.

Выпущено: США
Продолжительность: 01:49:37
Перевод: Дублированный + Оригинал
Файл
Кодек: x264
Качество: BDRip 1080p
Видео: 1920x1080, 8858 Kbps, 23.976 fps
Аудио #1: AC-3, 6 ch, 640 kbps (Rus)
Аудио #2: AC-3, 6 ch, 640 kbps (Eng)
Субтитры: русские , английские
MI
Общее
Уникальный идентификатор : 223735724942607786925469340337998818877 (0xA851EEE822D60595B5F3B1E7C7C26E3D)
Полное имя : Смертельное оружие.1987.BDRip.1080p.Rus.Eng.mkv
Формат : Matroska
Версия формата : Version 4 / Version 2
Размер файла : 7,76 Гбайт
Продолжительность : 1 ч. 49 м.
Общий поток : 10,1 Мбит/сек
Название фильма : Смертельное оружие.1987
Дата кодирования : UTC 2013-04-24 16:19:01
Программа кодирования : mkvmerge v6.1.0 ('Old Devil') built on Mar 4 2013 09:10:42
Библиотека кодирования : libebml v1.3.0 + libmatroska v1.4.0
Видео
Идентификатор : 1
Формат : AVC
Формат/Информация : Advanced Video Codec
Профиль формата : High@L4.1
Параметр CABAC формата : Да
Параметр ReFrames формата : 4 кадра
Идентификатор кодека : V_MPEG4/ISO/AVC
Продолжительность : 1 ч. 49 м.
Битрейт : 8858 Кбит/сек
Ширина : 1920 пикселей
Высота : 1080 пикселей
Соотношение сторон : 16:9
Режим частоты кадров : Постоянный
Частота кадров : 23,976 кадра/сек
Цветовое пространство : YUV
Субдискретизация насыщенности : 4:2:0
Битовая глубина : 8 бит
Тип развёртки : Прогрессивная
Бит/(Пиксели*Кадры) : 0.178
Размер потока : 6,62 Гбайт (85%)
Заголовок : Rip by Boriy
Библиотека кодирования : x264 core 130 r2273 b3065e6
Настройки программы : cabac=1 / ref=4 / deblock=1:-3:-3 / analyse=0x3:0x113 / me=umh / subme=10 / psy=1 / psy_rd=1.00:0.10 / mixed_ref=1 / me_range=32 / chroma_me=1 / trellis=2 / 8x8dct=1 / cqm=0 / deadzone=21,11 / fast_pskip=0 / chroma_qp_offset=-2 / threads=12 / lookahead_threads=1 / sliced_threads=0 / nr=0 / decimate=0 / interlaced=0 / bluray_compat=0 / constrained_intra=0 / bframes=5 / b_pyramid=2 / b_adapt=2 / b_bias=0 / direct=3 / weightb=1 / open_gop=0 / weightp=2 / keyint=240 / keyint_min=23 / scenecut=40 / intra_refresh=0 / rc=2pass / mbtree=0 / bitrate=8858 / ratetol=1.0 / qcomp=0.60 / qpmin=0 / qpmax=69 / qpstep=4 / cplxblur=20.0 / qblur=0.5 / ip_ratio=1.40 / pb_ratio=1.30 / aq=1:0.80
Язык : English
Default : Да
Forced : Нет
Аудио #1
Идентификатор : 2
Формат : AC-3
Формат/Информация : Audio Coding 3
Расширение режима : CM (complete main)
Параметр Endianness формата : Big
Идентификатор кодека : A_AC3
Продолжительность : 1 ч. 49 м.
Вид битрейта : Постоянный
Битрейт : 640 Кбит/сек
Каналы : 6 каналов
Расположение каналов : Front: L C R, Side: L R, LFE
Частота : 48,0 КГц
Битовая глубина : 16 бит
Метод сжатия : С потерями
Размер потока : 502 Мбайт (6%)
Заголовок : Дубляж
Язык : Russian
Default : Да
Forced : Нет
Аудио #2
Идентификатор : 3
Формат : AC-3
Формат/Информация : Audio Coding 3
Расширение режима : CM (complete main)
Параметр Endianness формата : Big
Идентификатор кодека : A_AC3
Продолжительность : 1 ч. 49 м.
Вид битрейта : Постоянный
Битрейт : 640 Кбит/сек
Каналы : 6 каналов
Расположение каналов : Front: L C R, Side: L R, LFE
Частота : 48,0 КГц
Битовая глубина : 16 бит
Метод сжатия : С потерями
Размер потока : 502 Мбайт (6%)
Заголовок : Оригинал
Язык : English
Default : Нет
Forced : Нет
Текст #1
Идентификатор : 4
Формат : UTF-8
Идентификатор кодека : S_TEXT/UTF8
Идентификатор кодека/Информация : UTF-8 Plain Text
Язык : Russian
Default : Нет
Forced : Нет
Текст #2
Идентификатор : 5
Формат : UTF-8
Идентификатор кодека : S_TEXT/UTF8
Идентификатор кодека/Информация : UTF-8 Plain Text
Язык : English
Default : Нет
Forced : Нет
Меню
00:00:00.000 : :Chapter 1
00:04:26.099 : :Chapter 2
00:11:13.839 : :Chapter 3
00:14:53.601 : :Chapter 4
00:18:13.300 : :Chapter 5
00:23:05.008 : :Chapter 6
00:25:58.390 : :Chapter 7
00:28:36.047 : :Chapter 8
00:36:45.786 : :Chapter 9
00:42:59.577 : :Chapter 10
00:54:12.707 : :Chapter 11
00:57:39.205 : :Chapter 12
01:03:44.237 : :Chapter 13
01:08:10.294 : :Chapter 14
01:10:25.930 : :Chapter 15
01:15:17.513 : :Chapter 16
01:23:47.522 : :Chapter 17
01:29:30.365 : :Chapter 18
01:36:55.476 : :Chapter 19
01:38:54.929 : :Chapter 20
01:43:03.010 : :Chapter 21
01:43:48.222 : :Chapter 22
01:44:45.904 : :Chapter 23
01:49:36.778 : :Chapter 24
-
Смертельное оружие 2 / Lethal Weapon 2 (1989) BDRip 1080p
Информация о фильме
Название: Смертельное оружие 2
Оригинальное название: Lethal Weapon 2
Год выхода: 1989
Жанр: боевик, триллер, комедия, криминал
Режиссер: Ричард Доннер
В ролях: Мэл Гибсон, Дэнни Гловер, Джо Пеши, Джосс Экланд, Деррик О`Коннор, Пэтси Кенсит, Дарлен Лав, Трэйси Вульф, Steve Kahan, Марк Ролстон, Дженет Голдштейн, Дин Норрис, Нестор Серрано, Филип Суриано, Гранд Л. Буш, Тони Каррейро, Дэймон Хайнс, Эбони Смит, Аллан Дин Мур, Джек МакГи
О фильме:
Мартин и его напарник Роджер напали на след могущественной наркомафии, которой заправляли выходцы из Южно-Африканского Союза. Полиции удалось арестовать одного из мошенников, помогавших мафиозо отмывать их грязные деньги.
Этого важного свидетеля поручили охранять Мартину и Роджеру. Сами бандиты были неуязвимы, так как пользовались дипломатической неприкосновенностью…

Выпущено: США
Продолжительность: 01:54:27
Перевод: Дублированный + Оригинал
Файл
Кодек: x264
Качество: BDRip 1080p
Видео: 1920x800, 8430 Kbps, 23.976 fps
Аудио #1: AC-3, 6 ch, 640 kbps (Rus)
Аудио #2: AC-3, 6 ch, 640 kbps (Eng)
Субтитры: русские , английские
MI
Общее
Уникальный идентификатор : 234343526456829442486494161191784592168 (0xB04CEBE69D5CD34BA82FBE039F32B328)
Полное имя : Смертельное оружие 2.1989.BDRip.1080p.Rus.Eng.mkv
Формат : Matroska
Версия формата : Version 4 / Version 2
Размер файла : 7,76 Гбайт
Продолжительность : 1 ч. 54 м.
Общий поток : 9709 Кбит/сек
Название фильма : Смертельное оружие 2.1989
Дата кодирования : UTC 2013-04-24 16:26:03
Программа кодирования : mkvmerge v6.1.0 ('Old Devil') built on Mar 4 2013 09:10:42
Библиотека кодирования : libebml v1.3.0 + libmatroska v1.4.0
Видео
Идентификатор : 1
Формат : AVC
Формат/Информация : Advanced Video Codec
Профиль формата : High@L4.1
Параметр CABAC формата : Да
Параметр ReFrames формата : 5 кадров
Идентификатор кодека : V_MPEG4/ISO/AVC
Продолжительность : 1 ч. 54 м.
Битрейт : 8430 Кбит/сек
Ширина : 1920 пикселей
Высота : 800 пикселей
Соотношение сторон : 2,40:1
Режим частоты кадров : Постоянный
Частота кадров : 23,976 кадра/сек
Цветовое пространство : YUV
Субдискретизация насыщенности : 4:2:0
Битовая глубина : 8 бит
Тип развёртки : Прогрессивная
Бит/(Пиксели*Кадры) : 0.229
Размер потока : 6,58 Гбайт (85%)
Заголовок : Rip by Boriy
Библиотека кодирования : x264 core 130 r2273 b3065e6
Настройки программы : cabac=1 / ref=5 / deblock=1:-3:-3 / analyse=0x3:0x113 / me=umh / subme=10 / psy=1 / psy_rd=1.00:0.10 / mixed_ref=1 / me_range=32 / chroma_me=1 / trellis=2 / 8x8dct=1 / cqm=0 / deadzone=21,11 / fast_pskip=0 / chroma_qp_offset=-2 / threads=12 / lookahead_threads=1 / sliced_threads=0 / nr=0 / decimate=0 / interlaced=0 / bluray_compat=0 / constrained_intra=0 / bframes=5 / b_pyramid=2 / b_adapt=2 / b_bias=0 / direct=3 / weightb=1 / open_gop=0 / weightp=2 / keyint=240 / keyint_min=23 / scenecut=40 / intra_refresh=0 / rc=2pass / mbtree=0 / bitrate=8430 / ratetol=1.0 / qcomp=0.60 / qpmin=0 / qpmax=69 / qpstep=4 / cplxblur=20.0 / qblur=0.5 / ip_ratio=1.40 / pb_ratio=1.30 / aq=1:0.80
Язык : English
Default : Да
Forced : Нет
Аудио #1
Идентификатор : 2
Формат : AC-3
Формат/Информация : Audio Coding 3
Расширение режима : CM (complete main)
Параметр Endianness формата : Big
Идентификатор кодека : A_AC3
Продолжительность : 1 ч. 54 м.
Вид битрейта : Постоянный
Битрейт : 640 Кбит/сек
Каналы : 6 каналов
Расположение каналов : Front: L C R, Side: L R, LFE
Частота : 48,0 КГц
Битовая глубина : 16 бит
Метод сжатия : С потерями
Размер потока : 524 Мбайт (7%)
Заголовок : Дубляж
Язык : Russian
Default : Да
Forced : Нет
Аудио #2
Идентификатор : 3
Формат : AC-3
Формат/Информация : Audio Coding 3
Расширение режима : CM (complete main)
Параметр Endianness формата : Big
Идентификатор кодека : A_AC3
Продолжительность : 1 ч. 54 м.
Вид битрейта : Постоянный
Битрейт : 640 Кбит/сек
Каналы : 6 каналов
Расположение каналов : Front: L C R, Side: L R, LFE
Частота : 48,0 КГц
Битовая глубина : 16 бит
Метод сжатия : С потерями
Размер потока : 524 Мбайт (7%)
Заголовок : Оригинал
Язык : English
Default : Нет
Forced : Нет
Текст #1
Идентификатор : 4
Формат : UTF-8
Идентификатор кодека : S_TEXT/UTF8
Идентификатор кодека/Информация : UTF-8 Plain Text
Язык : Russian
Default : Нет
Forced : Нет
Текст #2
Идентификатор : 5
Формат : UTF-8
Идентификатор кодека : S_TEXT/UTF8
Идентификатор кодека/Информация : UTF-8 Plain Text
Язык : English
Default : Нет
Forced : Нет
Меню
00:00:00.000 : :Chapter 1
00:07:51.387 : :Chapter 2
00:10:00.266 : :Chapter 3
00:11:20.262 : :Chapter 4
00:12:58.903 : :Chapter 5
00:16:26.110 : :Chapter 6
00:18:21.141 : :Chapter 7
00:21:42.009 : :Chapter 8
00:23:42.003 : :Chapter 9
00:25:56.846 : :Chapter 10
00:30:25.156 : :Chapter 11
00:33:51.821 : :Chapter 12
00:35:59.448 : :Chapter 13
00:39:39.794 : :Chapter 14
00:42:38.430 : :Chapter 15
00:43:58.927 : :Chapter 16
00:45:34.064 : :Chapter 17
00:47:12.120 : :Chapter 18
00:48:32.409 : :Chapter 19
00:50:32.404 : :Chapter 20
00:51:44.476 : :Chapter 21
00:55:07.220 : :Chapter 22
01:00:13.526 : :Chapter 23
01:06:37.410 : :Chapter 24
01:07:56.489 : :Chapter 25
01:12:04.111 : :Chapter 26
01:15:03.540 : :Chapter 27
01:19:24.926 : :Chapter 28
01:24:13.214 : :Chapter 29
01:26:41.029 : :Chapter 30
01:28:06.364 : :Chapter 31
01:30:30.007 : :Chapter 32
01:33:54.629 : :Chapter 33
01:37:22.086 : :Chapter 34
01:41:08.520 : :Chapter 35
01:43:15.147 : :Chapter 36
01:45:36.121 : :Chapter 37
01:46:36.598 : :Chapter 38
01:49:30.188 : :Chapter 39
01:54:26.901 : :Chapter 40
-
Смертельное оружие 3 / Lethal Weapon 3 (1992) BDRip 1080p
Информация о фильме
Название: Смертельное оружие 3
Оригинальное название: Lethal Weapon 3
Год выхода: 1992
Жанр: боевик, триллер, комедия, криминал
Режиссер: Ричард Доннер
В ролях: Мэл Гибсон, Дэнни Гловер, Джо Пеши, Рене Руссо, Стюарт Уилсон, Стив Кэхэн, Дарлен Лав, Трэйси Вульф, Дэймон Хайнс, Эбони Смит
О фильме:
Третий фильм о неустрашимом полицейском Риггсе. На этот раз Мартин и его напарник Роджер сталкиваются с гангстерами, похищающими оружие со склада полиции. Преступную группу, за которой тянется длинный кровавый след, возглавляет бывший сержант Джек Тревис. Найти улики против «грязного» полицейского напарникам помогает Лорна Коул - решительная женщина-полицейский, которая не останавливается перед лицом опасности и уверенно вступает в схватку с противниками...

Выпущено: США
Продолжительность: 01:57:53
Перевод: Дублированный + Оригинал
Файл
Кодек: x264
Качество: BDRip 1080p
Видео: 1920x800, 8146 Kbps, 23.976 fps
Аудио #1: AC-3, 6 ch, 640 kbps (Rus)
Аудио #2: AC-3, 6 ch, 640 kbps (Eng)
Субтитры: русские , английские
MI
Общее
Уникальный идентификатор : 186115552415733044717307367573708208077 (0x8C048D32785B3087835CAFB631EDF7CD)
Полное имя : Смертельное оружие 3.1992.BDRip.1080p.Rus.Eng.mkv
Формат : Matroska
Версия формата : Version 4 / Version 2
Размер файла : 7,76 Гбайт
Продолжительность : 1 ч. 57 м.
Общий поток : 9427 Кбит/сек
Название фильма : Смертельное оружие 3.1992
Дата кодирования : UTC 2013-04-24 16:34:26
Программа кодирования : mkvmerge v6.1.0 ('Old Devil') built on Mar 4 2013 09:10:42
Библиотека кодирования : libebml v1.3.0 + libmatroska v1.4.0
Видео
Идентификатор : 1
Формат : AVC
Формат/Информация : Advanced Video Codec
Профиль формата : High@L4.1
Параметр CABAC формата : Да
Параметр ReFrames формата : 5 кадров
Идентификатор кодека : V_MPEG4/ISO/AVC
Продолжительность : 1 ч. 57 м.
Битрейт : 8146 Кбит/сек
Ширина : 1920 пикселей
Высота : 800 пикселей
Соотношение сторон : 2,40:1
Режим частоты кадров : Постоянный
Частота кадров : 23,976 кадра/сек
Цветовое пространство : YUV
Субдискретизация насыщенности : 4:2:0
Битовая глубина : 8 бит
Тип развёртки : Прогрессивная
Бит/(Пиксели*Кадры) : 0.221
Размер потока : 6,55 Гбайт (84%)
Заголовок : Rip by Boriy
Библиотека кодирования : x264 core 130 r2273 b3065e6
Настройки программы : cabac=1 / ref=5 / deblock=1:-3:-3 / analyse=0x3:0x113 / me=umh / subme=10 / psy=1 / psy_rd=1.00:0.10 / mixed_ref=1 / me_range=32 / chroma_me=1 / trellis=2 / 8x8dct=1 / cqm=0 / deadzone=21,11 / fast_pskip=0 / chroma_qp_offset=-2 / threads=12 / lookahead_threads=1 / sliced_threads=0 / nr=0 / decimate=0 / interlaced=0 / bluray_compat=0 / constrained_intra=0 / bframes=5 / b_pyramid=2 / b_adapt=2 / b_bias=0 / direct=3 / weightb=1 / open_gop=0 / weightp=2 / keyint=240 / keyint_min=23 / scenecut=40 / intra_refresh=0 / rc=2pass / mbtree=0 / bitrate=8146 / ratetol=1.0 / qcomp=0.60 / qpmin=0 / qpmax=69 / qpstep=4 / cplxblur=20.0 / qblur=0.5 / ip_ratio=1.40 / pb_ratio=1.30 / aq=1:0.80
Язык : English
Default : Да
Forced : Нет
Аудио #1
Идентификатор : 2
Формат : AC-3
Формат/Информация : Audio Coding 3
Расширение режима : CM (complete main)
Параметр Endianness формата : Big
Идентификатор кодека : A_AC3
Продолжительность : 1 ч. 57 м.
Вид битрейта : Постоянный
Битрейт : 640 Кбит/сек
Каналы : 6 каналов
Расположение каналов : Front: L C R, Side: L R, LFE
Частота : 48,0 КГц
Битовая глубина : 16 бит
Метод сжатия : С потерями
Размер потока : 540 Мбайт (7%)
Заголовок : Дубляж
Язык : Russian
Default : Да
Forced : Нет
Аудио #2
Идентификатор : 3
Формат : AC-3
Формат/Информация : Audio Coding 3
Расширение режима : CM (complete main)
Параметр Endianness формата : Big
Идентификатор кодека : A_AC3
Продолжительность : 1 ч. 57 м.
Вид битрейта : Постоянный
Битрейт : 640 Кбит/сек
Каналы : 6 каналов
Расположение каналов : Front: L C R, Side: L R, LFE
Частота : 48,0 КГц
Битовая глубина : 16 бит
Метод сжатия : С потерями
Размер потока : 540 Мбайт (7%)
Заголовок : Оригинал
Язык : English
Default : Нет
Forced : Нет
Текст #1
Идентификатор : 4
Формат : UTF-8
Идентификатор кодека : S_TEXT/UTF8
Идентификатор кодека/Информация : UTF-8 Plain Text
Язык : Russian
Default : Нет
Forced : Нет
Текст #2
Идентификатор : 5
Формат : UTF-8
Идентификатор кодека : S_TEXT/UTF8
Идентификатор кодека/Информация : UTF-8 Plain Text
Язык : English
Default : Нет
Forced : Нет
Меню
00:00:00.000 : :Chapter 1
00:01:39.182 : :Chapter 2
00:07:48.676 : :Chapter 3
00:10:05.062 : :Chapter 4
00:15:11.744 : :Chapter 5
00:20:08.832 : :Chapter 6
00:22:06.450 : :Chapter 7
00:24:36.975 : :Chapter 8
00:29:16.421 : :Chapter 9
00:37:00.593 : :Chapter 10
00:43:34.028 : :Chapter 11
00:49:31.551 : :Chapter 12
00:53:44.262 : :Chapter 13
00:56:17.791 : :Chapter 14
00:58:06.483 : :Chapter 15
01:00:42.347 : :Chapter 16
01:05:49.111 : :Chapter 17
01:11:41.422 : :Chapter 18
01:14:59.745 : :Chapter 19
01:18:15.982 : :Chapter 20
01:22:29.361 : :Chapter 21
01:24:37.197 : :Chapter 22
01:27:21.945 : :Chapter 23
01:29:59.268 : :Chapter 24
01:34:44.178 : :Chapter 25
01:37:15.329 : :Chapter 26
01:42:34.606 : :Chapter 27
01:46:24.628 : :Chapter 28
01:48:26.458 : :Chapter 29
01:51:44.030 : :Chapter 30
01:57:05.018 : :Chapter 31
01:57:52.857 : :Chapter 32
-
Смертельное оружие 4 / Lethal Weapon 4 (1998) BDRip 1080p
Информация о фильме
Название: Смертельное оружие 4
Оригинальное название: Lethal Weapon 4
Год выхода: 1998
Жанр: боевик, триллер, комедия, криминал
Режиссер: Ричард Доннер
В ролях: Мэл Гибсон, Дэнни Гловер, Джо Пеши, Рене Руссо, Крис Рок, Джет Ли, Стив Кэхэн, Ким Чан, Дарлен Лав, Трэйси Вульф
О фильме:
Главный герой Риггз ждет, как он надеется, сына от Лорны Коул, а Роджер — внука. Оба уже ощущают возраст, им дали звания капитанов, но сердца их все еще молоды и без приключений не могут. В этом 4-м по счету фильме их дорожки случайно пересеклись с китайскими мафиози, печатающими фальшивые деньги.
В фильме есть юмор, множество перестрелок, драк, погонь, головокружительных трюков. Взрываются бензовозы, машины, корабли садятся на мель, Джет Ли показывает свое мастерство в восточных единоборствах.

Выпущено: США
Продолжительность: 02:07:23
Перевод: Дублированный + Оригинал
Файл
Кодек: x264
Качество: BDRip 1080p
Видео: 1920x800, 7444 Kbps, 23.976 fps
Аудио #1: AC-3, 6 ch, 640 kbps (Rus)
Аудио #2: AC-3, 6 ch, 640 kbps (Eng)
Субтитры: русские , английские
MI
Общее
Уникальный идентификатор : 192131120698295995188733403849432922832 (0x908B1B9CB9142CF49E565ABA9EAA7AD0)
Полное имя : Смертельное оружие 4.1998.BDRip.1080p.Rus.Eng.mkv
Формат : Matroska
Версия формата : Version 4 / Version 2
Размер файла : 7,76 Гбайт
Продолжительность : 2 ч. 7 м.
Общий поток : 8726 Кбит/сек
Название фильма : Смертельное оружие 4.1998
Дата кодирования : UTC 2013-04-24 16:43:55
Программа кодирования : mkvmerge v6.1.0 ('Old Devil') built on Mar 4 2013 09:10:42
Библиотека кодирования : libebml v1.3.0 + libmatroska v1.4.0
Видео
Идентификатор : 1
Формат : AVC
Формат/Информация : Advanced Video Codec
Профиль формата : High@L4.1
Параметр CABAC формата : Да
Параметр ReFrames формата : 5 кадров
Идентификатор кодека : V_MPEG4/ISO/AVC
Продолжительность : 2 ч. 7 м.
Битрейт : 7444 Кбит/сек
Ширина : 1920 пикселей
Высота : 800 пикселей
Соотношение сторон : 2,40:1
Режим частоты кадров : Постоянный
Частота кадров : 23,976 кадра/сек
Цветовое пространство : YUV
Субдискретизация насыщенности : 4:2:0
Битовая глубина : 8 бит
Тип развёртки : Прогрессивная
Бит/(Пиксели*Кадры) : 0.202
Размер потока : 6,47 Гбайт (83%)
Заголовок : Rip by Boriy
Библиотека кодирования : x264 core 130 r2273 b3065e6
Настройки программы : cabac=1 / ref=5 / deblock=1:-3:-3 / analyse=0x3:0x113 / me=umh / subme=10 / psy=1 / psy_rd=1.00:0.10 / mixed_ref=1 / me_range=32 / chroma_me=1 / trellis=2 / 8x8dct=1 / cqm=0 / deadzone=21,11 / fast_pskip=0 / chroma_qp_offset=-2 / threads=12 / lookahead_threads=1 / sliced_threads=0 / nr=0 / decimate=0 / interlaced=0 / bluray_compat=0 / constrained_intra=0 / bframes=5 / b_pyramid=2 / b_adapt=2 / b_bias=0 / direct=3 / weightb=1 / open_gop=0 / weightp=2 / keyint=240 / keyint_min=23 / scenecut=40 / intra_refresh=0 / rc=2pass / mbtree=0 / bitrate=7444 / ratetol=1.0 / qcomp=0.60 / qpmin=0 / qpmax=69 / qpstep=4 / cplxblur=20.0 / qblur=0.5 / ip_ratio=1.40 / pb_ratio=1.30 / aq=1:0.80
Язык : English
Default : Да
Forced : Нет
Аудио #1
Идентификатор : 2
Формат : AC-3
Формат/Информация : Audio Coding 3
Расширение режима : CM (complete main)
Параметр Endianness формата : Big
Идентификатор кодека : A_AC3
Продолжительность : 2 ч. 7 м.
Вид битрейта : Постоянный
Битрейт : 640 Кбит/сек
Каналы : 6 каналов
Расположение каналов : Front: L C R, Side: L R, LFE
Частота : 48,0 КГц
Битовая глубина : 16 бит
Метод сжатия : С потерями
Размер потока : 583 Мбайт (7%)
Заголовок : Дубляж
Язык : Russian
Default : Да
Forced : Нет
Аудио #2
Идентификатор : 3
Формат : AC-3
Формат/Информация : Audio Coding 3
Расширение режима : CM (complete main)
Параметр Endianness формата : Big
Идентификатор кодека : A_AC3
Продолжительность : 2 ч. 7 м.
Вид битрейта : Постоянный
Битрейт : 640 Кбит/сек
Каналы : 6 каналов
Расположение каналов : Front: L C R, Side: L R, LFE
Частота : 48,0 КГц
Битовая глубина : 16 бит
Метод сжатия : С потерями
Размер потока : 583 Мбайт (7%)
Заголовок : Оригинал
Язык : English
Default : Нет
Forced : Нет
Текст #1
Идентификатор : 4
Формат : UTF-8
Идентификатор кодека : S_TEXT/UTF8
Идентификатор кодека/Информация : UTF-8 Plain Text
Язык : Russian
Default : Нет
Forced : Нет
Текст #2
Идентификатор : 5
Формат : UTF-8
Идентификатор кодека : S_TEXT/UTF8
Идентификатор кодека/Информация : UTF-8 Plain Text
Язык : English
Default : Нет
Forced : Нет
Меню
00:00:00.000 : :Chapter 1
00:01:52.195 : :Chapter 2
00:03:51.606 : :Chapter 3
00:05:54.604 : :Chapter 4
00:09:47.587 : :Chapter 5
00:13:40.110 : :Chapter 6
00:15:31.931 : :Chapter 7
00:17:28.964 : :Chapter 8
00:20:32.439 : :Chapter 9
00:21:55.355 : :Chapter 10
00:25:28.109 : :Chapter 11
00:27:50.293 : :Chapter 12
00:32:20.480 : :Chapter 13
00:35:42.515 : :Chapter 14
00:38:17.962 : :Chapter 15
00:40:15.412 : :Chapter 16
00:43:04.123 : :Chapter 17
00:46:27.868 : :Chapter 18
00:49:28.507 : :Chapter 19
00:51:19.659 : :Chapter 20
00:52:14.965 : :Chapter 21
00:55:53.808 : :Chapter 22
00:58:45.396 : :Chapter 23
01:02:42.675 : :Chapter 24
01:06:32.780 : :Chapter 25
01:09:36.463 : :Chapter 26
01:11:34.206 : :Chapter 27
01:13:44.503 : :Chapter 28
01:15:37.449 : :Chapter 29
01:17:28.018 : :Chapter 30
01:20:01.505 : :Chapter 31
01:22:38.453 : :Chapter 32
01:27:29.202 : :Chapter 33
01:31:05.918 : :Chapter 34
01:33:03.035 : :Chapter 35
01:35:37.106 : :Chapter 36
01:38:03.919 : :Chapter 37
01:40:33.610 : :Chapter 38
01:43:51.475 : :Chapter 39
01:46:22.667 : :Chapter 40
01:47:29.985 : :Chapter 41
01:50:10.604 : :Chapter 42
01:53:53.368 : :Chapter 43
01:58:03.117 : :Chapter 44
02:00:15.208 : :Chapter 45
02:07:23.427 : :Chapter 46
[Профиль] [ЛС]
Показать сообщения:    
Ответить на тему

Текущее время: 23-Мар 13:20

Часовой пояс: UTC + 3



Вы не можете начинать темы
Вы не можете отвечать на сообщения
Вы не можете редактировать свои сообщения
Вы не можете удалять свои сообщения
Вы не можете голосовать в опросах
Вы не можете прикреплять файлы к сообщениям
Вы не можете скачивать файлы