Дом напротив / Сосед / The Neighbor (2016) BDRip 1080p | iTunes

Ответить на тему
Статистика раздачи
Размер:  8,66 GB   |    Зарегистрирован:  6 месяцев 21 день   |    Скачан:  0 раз
Сидов:  43  [  0 KB/s  ]   Личеров:  39  [  0 KB/s  ]   Подробная статистика пиров
 
   
 
 
Автор Сообщение

Bot ®

Стаж: 5 лет 2 месяца

Сообщений: 30791

Откуда: СССР

Создавать темы 05-Янв-2017 07:49

[Цитировать]

Информация о фильме
Название: Дом напротив
Оригинальное название: The Neighbor
Год выхода: 2016
Жанр: Ужасы, триллер, криминал
Режиссер: Маркус Данстэн
В ролях: Джош Стюарт, Александра Эссоу, Билл Ингвалл, Люк Эдвардс, Скипп Саддат, Жаклин Флеминг, Ронни Джин Блевинс, Дэвид Каллауэй, Хезер Уильямс
О фильме:
Джон - наркодилер. Он подчиняется своему дяде, кроме которого у Джона нет никого из родственников, и живёт за городом с женой Рози. Они задумали сбежать от грязного бизнеса после последней пары поставок, а пока Джон занят делами, Рози целыми днями сидит дома и наблюдает в телескоп за соседом. Тот занят, вроде бы, обычным для сельской местности делом - отстрелом кроликов, и однажды заявляется к парочке в гости.

Страна: США
Студия: Fortress Features, Salt Company International
Продолжительность: 01:26:53
Перевод: Дублированный | iTunes
Файл
Качество: BDRip 1080p
Видео: MPEG-4 AVC, 1920x804, 13.5 Mbit/s, 23.976 fps
Звук:
Аудио #01: 48 kHz, AC3, 5.1, 384 Kbps | Дублированный | iTunes |
Аудио #02: 48 kHz, AC3, 5.1, 384 kbps | Оригинал |
Субтитры: Английские
MI
Общее
Уникальный идентификатор : 197328636666658614139147044628938719836 (0x94741CEF267482728629DBC1D311825C)
Полное имя : F:VideoThe.Neighbor.2016.BDRip.1080p.ExKinoRay.mkv
Формат : Matroska
Версия формата : Version 4 / Version 2
Размер файла : 8,66 Гбайт
Продолжительность : 1 ч. 26 м.
Общий поток : 14,2 Мбит/сек
Название фильма : The.Neighbor.2016 ***селезень***
Дата кодирования : UTC 2017-01-04 21:29:22
Программа кодирования : mkvmerge v8.3.0 ('Over the Horizon') 64bit
Библиотека кодирования : libebml v1.3.1 + libmatroska v1.4.2
Видео
Идентификатор : 1
Формат : AVC
Формат/Информация : Advanced Video Codec
Профиль формата : High@L4.1
Параметр CABAC формата : Да
Параметр ReFrames формата : 5 кадров
Идентификатор кодека : V_MPEG4/ISO/AVC
Продолжительность : 1 ч. 26 м.
Битрейт : 13,5 Мбит/сек
Ширина : 1920 пикселей
Высота : 804 пикселя
Соотношение сторон : 2,40:1
Режим частоты кадров : Постоянный
Частота кадров : 23,976 (24000/1001) кадра/сек
Цветовое пространство : YUV
Субдискретизация насыщенности : 4:2:0
Битовая глубина : 8 бит
Тип развёртки : Прогрессивная
Бит/(Пиксели*Кадры) : 0.365
Размер потока : 8,19 Гбайт (95%)
Заголовок : The.Neighbor.2016 ***селезень***
Библиотека кодирования : x264 core 146 r2538 121396c
Настройки программы : cabac=1 / ref=5 / deblock=1:-3:-3 / analyse=0x3:0x133 / me=tesa / subme=11 / psy=1 / psy_rd=1.00:0.00 / mixed_ref=1 / me_range=32 / chroma_me=1 / trellis=2 / 8x8dct=1 / cqm=0 / deadzone=21,11 / fast_pskip=0 / chroma_qp_offset=-2 / threads=60 / lookahead_threads=6 / sliced_threads=0 / nr=0 / decimate=0 / interlaced=0 / bluray_compat=0 / constrained_intra=0 / bframes=10 / b_pyramid=2 / b_adapt=2 / b_bias=0 / direct=3 / weightb=1 / open_gop=0 / weightp=2 / keyint=240 / keyint_min=23 / scenecut=40 / intra_refresh=0 / rc_lookahead=150 / rc=crf / mbtree=0 / crf=15.4 / qcomp=0.60 / qpmin=0 / qpmax=69 / qpstep=4 / vbv_maxrate=62500 / vbv_bufsize=78125 / crf_max=0.0 / nal_hrd=none / filler=0 / ip_ratio=1.40 / pb_ratio=1.30 / aq=1:0.80 / zones=119244,125006,b=0.2
Язык : English
Default : Да
Forced : Нет
Цветовой диапазон : Limited
Коэффициенты матрицы : BT.709
Аудио #1
Идентификатор : 2
Формат : AC-3
Формат/Информация : Audio Coding 3
Расширение режима : CM (complete main)
Параметр Endianness формата : Big
Идентификатор кодека : A_AC3
Продолжительность : 1 ч. 26 м.
Вид битрейта : Постоянный
Битрейт : 384 Кбит/сек
Каналы : 6 каналов
Расположение каналов : Front: L C R, Side: L R, LFE
Частота : 48,0 КГц
Частота кадров : 31,250 кадров/сек (1536 spf)
Битовая глубина : 16 бит
Метод сжатия : С потерями
Размер потока : 238 Мбайт (3%)
Заголовок : iTunes
Язык : Russian
Default : Да
Forced : Нет
Аудио #2
Идентификатор : 3
Формат : AC-3
Формат/Информация : Audio Coding 3
Расширение режима : CM (complete main)
Параметр Endianness формата : Big
Идентификатор кодека : A_AC3
Продолжительность : 1 ч. 26 м.
Вид битрейта : Постоянный
Битрейт : 384 Кбит/сек
Каналы : 6 каналов
Расположение каналов : Front: L C R, Side: L R, LFE
Частота : 48,0 КГц
Частота кадров : 31,250 кадров/сек (1536 spf)
Битовая глубина : 16 бит
Метод сжатия : С потерями
Размер потока : 239 Мбайт (3%)
Заголовок : Original
Язык : English
Default : Нет
Forced : Нет
Текст
Идентификатор : 4
Формат : UTF-8
Идентификатор кодека : S_TEXT/UTF8
Идентификатор кодека/Информация : UTF-8 Plain Text
Продолжительность : 1 ч. 16 м.
Битрейт : 28 бит/сек
Count of elements : 500
Размер потока : 15,9 Кбайт (0%)
Заголовок : Full
Язык : English
Default : Нет
Forced : Нет
Меню
00:00:00.000 : en:Chapter 1
00:08:05.485 : en:Chapter 2
00:15:12.328 : en:Chapter 3
00:22:33.769 : en:Chapter 4
00:28:50.312 : en:Chapter 5
00:37:03.972 : en:Chapter 6
00:47:26.427 : en:Chapter 7
00:52:43.660 : en:Chapter 8
01:00:28.166 : en:Chapter 9
01:09:35.421 : en:Chapter 10
01:17:19.009 : en:Chapter 11
01:22:54.428 : en:Chapter 12
[realmt.org].t820019.torrent 
Торрент: Зарегистрирован [ 2017-01-05 07:49 ] · D9B9ED4CB117F5BB88DC95D98C00F0911224D3EA

Скачать .torrent

Скачать

44 KB

Статус: проверено
Скачан: 0 раз
Размер: 8,66 GB
Оценка:  - (Голосов: 0)
Поблагодарили: 0  Спасибо
terms.php
Похожие темы
[Профиль] [ЛС]
Быстрый ответ

Имя:

      
Для отправки сообщений необходимо включить JavaScript
Показать сообщения:    
Ответить на тему

Текущее время: 26-Июл 21:38

Часовой пояс: UTC + 3



Вы можете начинать темы
Вы можете отвечать на сообщения
Вы не можете редактировать свои сообщения
Вы не можете удалять свои сообщения
Вы не можете голосовать в опросах
Вы не можете прикреплять файлы к сообщениям
Вы можете скачивать файлы