Сегодня идет свободное скачивание без начисления Download

Дом напротив / Сосед / The Neighbor (2016) BDRemux 1080p | iTunes

Ответить на тему
Статистика раздачи
Размер:  15,47 GB   |    Зарегистрирован:  10 месяцев 19 дней   |    Скачан:  0 раз
Сидов:  26  [  0 KB/s  ]   Личеров:  30  [  0 KB/s  ]   Подробная статистика пиров
 
   
 
 
Автор Сообщение

Bot ®

Стаж: 5 лет 6 месяцев

Сообщений: 32715

Откуда: СССР

Создавать темы 05-Янв-2017 07:49

[Цитировать]

Информация о фильме
Название: Дом напротив
Оригинальное название: The Neighbor
Год выхода: 2016
Жанр: Ужасы, триллер, криминал
Режиссер: Маркус Данстэн
В ролях: Джош Стюарт, Александра Эссоу, Билл Ингвалл, Люк Эдвардс, Скипп Саддат, Жаклин Флеминг, Ронни Джин Блевинс, Дэвид Каллауэй, Хезер Уильямс
О фильме:
Джон - наркодилер. Он подчиняется своему дяде, кроме которого у Джона нет никого из родственников, и живёт за городом с женой Рози. Они задумали сбежать от грязного бизнеса после последней пары поставок, а пока Джон занят делами, Рози целыми днями сидит дома и наблюдает в телескоп за соседом. Тот занят, вроде бы, обычным для сельской местности делом - отстрелом кроликов, и однажды заявляется к парочке в гости.

Страна: США
Студия: Fortress Features, Salt Company International
Продолжительность: 01:26:53
Перевод: Дублированный | iTunes
Файл
Качество: BDRemux 1080p
Видео: MPEG-4 AVC, 1920x1080, 23.0 Mbit/s, 23.976 fps
Звук:
Аудио #01: 48 kHz, AC3, 5.1, 384 Kbps | Дублированный | iTunes |
Аудио #02: 48 kHz, DTS-HD MA, 5.1, 2048 kbps | Оригинал |
Субтитры: Английские
MI
Общее
Уникальный идентификатор : 182126819799504602586660255232139027568 (0x8904597EE9B91B2CA3B547D12BE56470)
Полное имя : F:VideoThe.Neighbor.2016.BDREMUX.1080p.ExKinoRay.mkv
Формат : Matroska
Версия формата : Version 4 / Version 2
Размер файла : 15,5 Гбайт
Продолжительность : 1 ч. 26 м.
Режим общего битрейта : Переменный
Общий поток : 25,5 Мбит/сек
Название фильма : The.Neighbor.2016 ***селезень***
Дата кодирования : UTC 2017-01-04 21:48:41
Программа кодирования : mkvmerge v8.3.0 ('Over the Horizon') 64bit
Библиотека кодирования : libebml v1.3.1 + libmatroska v1.4.2
Видео
Идентификатор : 1
Формат : AVC
Формат/Информация : Advanced Video Codec
Профиль формата : High@L4.1
Параметр CABAC формата : Да
Параметр ReFrames формата : 3 кадра
Идентификатор кодека : V_MPEG4/ISO/AVC
Продолжительность : 1 ч. 26 м.
Вид битрейта : Переменный
Битрейт : 23,0 Мбит/сек
Максимальный битрейт : 35,0 Мбит/сек
Ширина : 1920 пикселей
Высота : 1080 пикселей
Соотношение сторон : 16:9
Режим частоты кадров : Постоянный
Частота кадров : 23,976 (24000/1001) кадра/сек
Цветовое пространство : YUV
Субдискретизация насыщенности : 4:2:0
Битовая глубина : 8 бит
Тип развёртки : Прогрессивная
Бит/(Пиксели*Кадры) : 0.463
Размер потока : 14,0 Гбайт (90%)
Заголовок : The.Neighbor.2016 ***селезень***
Язык : English
Default : Да
Forced : Нет
Аудио #1
Идентификатор : 2
Формат : AC-3
Формат/Информация : Audio Coding 3
Расширение режима : CM (complete main)
Параметр Endianness формата : Big
Идентификатор кодека : A_AC3
Продолжительность : 1 ч. 26 м.
Вид битрейта : Постоянный
Битрейт : 384 Кбит/сек
Каналы : 6 каналов
Расположение каналов : Front: L C R, Side: L R, LFE
Частота : 48,0 КГц
Частота кадров : 31,250 кадров/сек (1536 spf)
Битовая глубина : 16 бит
Метод сжатия : С потерями
Размер потока : 238 Мбайт (2%)
Заголовок : iTunes
Язык : Russian
Default : Да
Forced : Нет
Аудио #2
Идентификатор : 3
Формат : DTS
Формат/Информация : Digital Theater Systems
Профиль формата : MA / Core
Режим : 16
Параметр Endianness формата : Big
Идентификатор кодека : A_DTS
Продолжительность : 1 ч. 26 м.
Вид битрейта : Переменный / Постоянный
Битрейт : 2048 Кбит/сек / 1509 Кбит/сек
Каналы : 6 каналов
Расположение каналов : Front: L C R, Side: L R, LFE
Частота : 48,0 КГц
Частота кадров : 93,750 кадра/сек (512 spf)
Битовая глубина : 16 бит
Метод сжатия : Без потерь / Lossy
Размер потока : 1,26 Гбайт (8%)
Заголовок : Original
Язык : English
Default : Нет
Forced : Нет
Текст
Идентификатор : 4
Формат : UTF-8
Идентификатор кодека : S_TEXT/UTF8
Идентификатор кодека/Информация : UTF-8 Plain Text
Продолжительность : 1 ч. 16 м.
Битрейт : 28 бит/сек
Count of elements : 500
Размер потока : 15,9 Кбайт (0%)
Заголовок : Full
Язык : English
Default : Нет
Forced : Нет
Меню
00:00:00.000 : en:Chapter 1
00:08:05.485 : en:Chapter 2
00:15:12.328 : en:Chapter 3
00:22:33.769 : en:Chapter 4
00:28:50.312 : en:Chapter 5
00:37:03.972 : en:Chapter 6
00:47:26.427 : en:Chapter 7
00:52:43.660 : en:Chapter 8
01:00:28.166 : en:Chapter 9
01:09:35.421 : en:Chapter 10
01:17:19.009 : en:Chapter 11
01:22:54.428 : en:Chapter 12
[realmt.org].t820020.torrent 
Торрент: Зарегистрирован [ 2017-01-05 07:49 ] · 32E3CF986A9C0AA8DA4D3FB667118876F3689600

Скачать .torrent

Скачать

78 KB

Статус: проверено
Скачан: 0 раз
Размер: 15,47 GB
Оценка:  - (Голосов: 0)
Поблагодарили: 0  Спасибо
terms.php
Похожие темы
[Профиль] [ЛС]
Быстрый ответ

Имя:

      
Для отправки сообщений необходимо включить JavaScript
Показать сообщения:    
Ответить на тему

Текущее время: 25-Ноя 05:10

Часовой пояс: UTC + 3



Вы можете начинать темы
Вы можете отвечать на сообщения
Вы не можете редактировать свои сообщения
Вы не можете удалять свои сообщения
Вы не можете голосовать в опросах
Вы не можете прикреплять файлы к сообщениям
Вы можете скачивать файлы