Млечный путь (Анна Матисон) [2015, Комедия, HDTVRip]

Ответить на тему
 
Автор Сообщение

Bot ®

Стаж: 4 года 1 месяц

Сообщений: 1496

Создавать темы 06-Янв-2017 09:50

[Цитировать]

Млечный путь
- Жанр: Комедия
Год выпуска: 2015
Продолжительность: 01:31:00-Режиссёр: Анна Матисон-В ролях: Сергей Безруков, Марина Александрова, Анастасия Безрукова, Пётр Терещенко, Валентин Гафт, Владимир Меньшов, Денис Мацуев, Биликто Дамбаев, Коте Толордава, Сергей Соцердотский-Описание: В браке Андрея и Нади что-то сломалось. Он отправляется жить в Москву, она с детьми остается в Иркутске. В канун Нового Года семья снова собирается вместе, но, похоже, в последний раз. Слово «развод» звучит вполне определенно. 1-го января, казалось бы, всё уже решено, но целая цепочка событий, — смешных, грустных, иногда даже странных и необъяснимых — будто удерживает семью от неправильного шага. Все они потеряются и найдут друг друга в эту волшебную ночь на острове Ольхон и поймут, что прошлые обиды легко забыть, а в жизни есть нечто куда более важное.- / -Качество видео: HDTVRip
Формат видео: AVI
Видео: 720x304 (2.35:1), 25.000 fps, XviD build 73, 1949 Kbps, 0.35 Bits/Pixel
Аудио: 48 kHz, AC3 Dolby Digital, 2 ch, 192 Kbps-Релиз от: -
MediaInfo
General
Complete name : Downloads\Mlechnij.put.2016.HDTVRip.Files-x.avi
Format : AVI
Format/Info : Audio Video Interleave
File size : 1.37 GiB
Duration : 1h 31mn
Overall bit rate : 2 151 Kbps
Writing application : VirtualDubModRus 1.5.10.2 (build 2542/release)
Writing library : VirtualDubMod build 2542/release
Video #0
ID : 0
Format : MPEG-4 Visual
Format profile : Advanced Simple@L5
Format settings, BVOP : 1
Format settings, QPel : No
Format settings, GMC : No warppoints
Format settings, Matrix : Custom
Codec ID : XVID
Codec ID/Hint : XviD
Duration : 1h 31mn
Bit rate : 1 949 Kbps
Width : 720 pixels
Height : 304 pixels
Display aspect ratio : 2.35:1
Frame rate : 25.000 fps
Color space : YUV
Chroma subsampling : 4:2:0
Bit depth : 8 bits
Scan type : Progressive
Compression mode : Lossy
Bits/(Pixel*Frame) : 0.356
Stream size : 1.24 GiB (91%)
Writing library : XviD 73
Audio #1
ID : 1
Format : AC-3
Format/Info : Audio Coding 3
Mode extension : CM (complete main)
Format settings, Endianness : Big
Codec ID : 2000
Duration : 1h 31mn
Bit rate mode : Constant
Bit rate : 192 Kbps
Channel(s) : 2 channels
Channel positions : Front: L R
Sampling rate : 48.0 KHz
Bit depth : 16 bits
Compression mode : Lossy
Stream size : 125 MiB (9%)
Alignment : Split accross interleaves
Interleave, duration : 40 ms (1.00 video frame)
Interleave, preload duration : 500 ms
Скриншот c названием фильма
Скриншоты
[Профиль] [ЛС]
Показать сообщения:    
Ответить на тему

Текущее время: 25-Сен 18:17

Часовой пояс: UTC + 3



Вы не можете начинать темы
Вы не можете отвечать на сообщения
Вы не можете редактировать свои сообщения
Вы не можете удалять свои сообщения
Вы не можете голосовать в опросах
Вы не можете прикреплять файлы к сообщениям
Вы не можете скачивать файлы