Сегодня идет свободное скачивание без начисления Download

Ветер странствий (1978) SATRip

Ответить на тему
 
Автор Сообщение

Bot ®

Стаж: 3 года 1 месяц

Сообщений: 6

Создавать темы 06-Янв-2017 23:02

[Цитировать]

Ветер странствий (1978) SATRip- Русское название: Ветер странствий
Год выпуска: 1978
Жанр: Приключения, Драма
Описание фильма:
Киноповесть по мотивам произведений Михаила Михайловича Пришвина "Кладовая солнца", "Корабельная чаща" и др. Великая Отечественная война. Мать Митраши и Насти получила похоронку на мужа и в скором времени умерла. Дети осиротели. Вся деревня помогала им выжить как могла. А потом из госпиталя пришло письмо, в котором говорилось, что отец Митраши и Насти жив и тяжело ранен. И отправились дети в долгое и трудное путешествие через всю страну на встречу со своим отцом в госпиталь...
Режиссер: Юрий Егоров
Актеры: Галина Астахова, Сергей Кузнецов, Владимир Марченко, Юрий Назаров, Сергей Яковлев, Марина Яковлева, Иван Екатериничев, Александр Жданов, Алексей Зайцев, Аркадий Пышняк, Максим Пучков, Алевтина Румянцева, Нина Чуб, Юрий Катин-Ярцев, Наина Хонина

Видеокодек: Xvid
Битрейт видео: ~2280 Кбит/сек
Размер кадра: 720x384
Качество видео: SATRip
Аудиокодек: MP3
Битрейт аудио: 192 Кбит/сек
Продолжительность: 01:18:56
MediaInfo
Видео
Идентификатор : 0
Формат : MPEG-4 Visual
Профиль формата : Advanced Simple@L5
Параметр BVOP формата : 1
Параметр QPel формата : Нет
Параметр GMC формата : Без точки перехода
Параметр матрицы формата : Выборочная
Идентификатор кодека : XVID
Идентификатор кодека/Подсказка : XviD
Продолжительность : 1 ч. 18 м.
Битрейт : 2280 Кбит/сек
Ширина : 720 пикс.
Высота : 384 пикс.
Соотношение сторон : 1,875
Частота кадров : 25,000 кадр/сек
Цветовое пространство : YUV
Подвыборка цветности : 4:2:0
Битовая глубина : 8 бит
Тип развёртки : Прогрессивная
Метод сжатия : С потерями
Бит/(Пиксели*Кадры) : 0.330
Размер потока : 1,26 Гбайт (92%)
Библиотека кодирования : XviD 1.2.1 (UTC 2008-12-04)
Аудио
Идентификатор : 1
Формат : MPEG Audio
Версия формата : Version 1
Профиль формата : Layer 3
Режим : Joint stereo
Расширение режима : MS Stereo
Идентификатор кодека : 55
Идентификатор кодека/Подсказка : MP3
Продолжительность : 1 ч. 18 м.
Вид битрейта : Постоянный
Битрейт : 192 Кбит/сек
Канал(ы) : 2 канала(ов)
Частота : 48,0 КГц
Метод сжатия : С потерями
Размер потока : 108 Мбайт (8%)
Выравнивание : Соединение по промежуткам
Продолжительность промежутка : 80 мс. (2,00 видеокадров)
Время предзагрузки промежутка : 504 ms
Библиотека кодирования : LAME3.98r
Настройки программы : -m j -V 4 -q 2 -lowpass 18.6 -b 192
Скриншоты: Время раздачи: С 08:00 до 23:30
[Профиль] [ЛС]
Показать сообщения:    
Ответить на тему

Текущее время: 30-Апр 04:25

Часовой пояс: UTC + 3



Вы не можете начинать темы
Вы не можете отвечать на сообщения
Вы не можете редактировать свои сообщения
Вы не можете удалять свои сообщения
Вы не можете голосовать в опросах
Вы не можете прикреплять файлы к сообщениям
Вы не можете скачивать файлы