Сегодня идет свободное скачивание без начисления Download

Упражнения в прекрасном (2011) DVDRip

Ответить на тему
 
Автор Сообщение

Bot ®

Стаж: 2 года 6 месяцев

Сообщений: 3

Создавать темы 06-Янв-2017 23:48

[Цитировать]

Упражнения в прекрасном (2011) DVDRip- Оригинальное название: Упражнения в прекрасном
Год выпуска: 2011
Производство: Парадиз (Россия)
Жанр: Комедия
Перевод: Оригинальный [Русский]
Дата мировой премьеры: 1 декабря 2011
Дата российской премьеры: 24 ноября 2011, «Парадиз»
Дата выхода DVD релиза: 15 декабря 2011, «Новый Диск»
Режиссер: Виктор Шамиров
Актеры: Виктор Шамиров, Гоша Куценко, Константин Юшкевич, Ксения Радченко, Павел Савинков
Описание фильма:
Пережив безумные юношеские надежды люди обычно соглашаются на роль участника массовки. Но некоторые всю жизнь чувствуют в себе силушку и предназначение свыше. И что-то делают, делают, делают. Создают. Или крадут-убивают, но уж в невероятных масштабах. В этой истории герои не крадут, и не убивают. Они едут, играют спектакль, едут, играют, летят, играют, пьют, ссорятся, едут, мирятся, пьют, любят, ненавидят, живут, живут, играют, живут…

Продолжительность: 01:33:18
Качество видео: DVDRip
Видеокодек: XviD
Битрейт видео: ~1643 kbps, Бит/(Пиксели*Кадры): 0.238
Размер кадра: 720x384
Аудиокодек: AC3 5.1
Битрейт аудио: 448 kbps
MediaInfo...
Полное имя : D:\Uprazhnenija.v.prekrasnom.2011.DVDRip.avi
Формат : AVI
Формат/Информация : Audio Video Interleave
Размер файла : 1,37 Гбайт
Продолжительность : 1 ч. 33 м.
Общий поток : 2101 Кбит/сек
Программа кодирования : VirtualDubMod 1.5.10.2 (build 2540/release)
Видео
Идентификатор : 0
Формат : MPEG-4 Visual
Профиль формата : Advanced Simple@L5
Параметр BVOP формата : 2
Параметр QPel формата : Нет
Параметр GMC формата : Без точки перехода
Параметр матрицы формата : Выборочная
Идентификатор кодека : XVID
Идентификатор кодека/Подсказка : XviD
Продолжительность : 1 ч. 33 м.
Битрейт : 1643 Кбит/сек
Ширина : 720 пикс.
Высота : 384 пикс.
Соотношение сторон : 1,875
Частота кадров : 25,000 кадр/сек
Цветовое пространство : YUV
Подвыборка цветности : 4:2:0
Битовая глубина : 8 бит
Тип развёртки : Прогрессивная
Метод сжатия : С потерями
Бит/(Пиксели*Кадры) : 0.238
Размер потока : 1,07 Гбайт (78%)
Библиотека кодирования : XviD 1.2.0.dev47 (UTC 2006-11-01)
Аудио
Идентификатор : 1
Формат : AC-3
Формат/Информация : Audio Coding 3
Расширение режима : CM (complete main)
Идентификатор кодека : 2000
Продолжительность : 1 ч. 33 м.
Вид битрейта : Постоянный
Битрейт : 448 Кбит/сек
Каналы : 6 каналов
Расположение каналов : Front: L C R, Side: L R, LFE
Частота : 48,0 КГц
Битовая глубина : 16 бит
Метод сжатия : С потерями
Размер потока : 299 Мбайт (21%)
Выравнивание : Разделение по промежуткам
Продолжительность промежутка : 40 мс. (1,00 видеокадр)
Время предзагрузки промежутка : 500 ms
Скриншоты:


Время раздачи: 24/7 (до 10 скачавших)
[Профиль] [ЛС]
Показать сообщения:    
Ответить на тему

Текущее время: 30-Апр 21:42

Часовой пояс: UTC + 3



Вы не можете начинать темы
Вы не можете отвечать на сообщения
Вы не можете редактировать свои сообщения
Вы не можете удалять свои сообщения
Вы не можете голосовать в опросах
Вы не можете прикреплять файлы к сообщениям
Вы не можете скачивать файлы