Сегодня идет свободное скачивание без начисления Download

Аполлон 13 / Apollo 13 (1995) HD-DVDRip HEVC 720p | D

Ответить на тему
 
Автор Сообщение

Bot ®

Стаж: 9 месяцев 15 дней

Сообщений: 1858

Создавать темы 07-Янв-2017 02:24

[Цитировать]

Название: Аполлон 13
Оригинальное название: Apollo 13-Год выпуска: 1995
Страна: США
Жанр: драма, приключения, история
Продолжительность: 02:19:50
Перевод: Дублированный [Лицензия]
Субтитры: Russian, English-В ролях: Том Хэнкс, Билл Пэкстон, Кевин Бейкон, Гэри Синиз, Эд Харрис, Кэтлин Куинлен, Мэри Кейт Шеллхардт, Эмили Энн Ллойд, Мико Хьюз, Макс Эллиотт Слэйд
Режиссёр: Рон Ховард-Описание: Фильм о неудачной лунной миссии «Аполлон-13» — одном из самых драматических моментов освоения космоса. В 1970 «Аполлон-13» должен был стать третьим космическим кораблём, который доставил бы астронавтов на Луну. Однако уже на подлёте к цели на корабле произошла серьёзная авария, которая не только поставила крест на высадке, но и создала угрозу жизни экипажа.-Качество: HD-DVDRip 720p
Формат: MKV
Видео кодек: x265
Аудио кодек: AC3
Видео: 1280x544, 23,976 fps, HEVC, ~3824 kbps, 10bit
Аудио: Rus, 48 kHz/16-bit, AC3 5.1, ~448 kbps | Дубляж
Аудио: Eng, 48 kHz/16-bit, AC3 5.1, ~448 kbps | Оригинал
Навигация по главам: Присутствует-Автор рипа: Alex_A
- - -
Внимание!
- H.265/HEVC (High Efficiency Video Coding) - это новый стандарт кодирования видео.
- Стандарт H.265/HEVC является логическим продолжением стандарта H.264/AVC (Advanced Video Coding), и характеризуется более эффективными алгоритмами сжатия, а также поддержкой высокого разрешения вплоть до 8K UHD (8192x4320). Первая версия стандарта H.265 была опубликована в начале 2013 года.
- Рипы в фомате HEVC, в настоящее время не поддерживается большинством аппаратных проигрывателей.
- Для корректного воспроизведения может потребоваться обновление ПО.
- Владельцам несовместимого железа просьба не беспокоить, есть альтернативные релизы.
Медиаинфо
Общее
Уникальный идентификатор : 239283617275580456628572372276721122920 (0xB404592EDB6EE094811BCC19038E7E68)
Полное имя : f:HEVCApollo 13 (1995)Apollo.13.1995.720p_HEVCCLUB.mkv
Формат : Matroska
Версия формата : Version 4 / Version 2
Размер файла : 4,61 Гбайт
Продолжительность : 2 ч. 19 м.
Общий поток : 4721 Кбит/сек
Название фильма : Apollo 13 (1995) - HEVC.CLUB
Дата кодирования : UTC 2017-01-06 07:27:06
Программа кодирования : mkvmerge v9.5.0 ('Quiet Fire') 64bit
Библиотека кодирования : libebml v1.3.4 + libmatroska v1.4.5
Обложка : Yes
Attachments : cover.jpg
Видео
Идентификатор : 1
Формат : HEVC
Формат/Информация : High Efficiency Video Coding
Профиль формата : Main 10@L4.1@High
Идентификатор кодека : V_MPEGH/ISO/HEVC
Продолжительность : 2 ч. 19 м.
Битрейт : 3824 Кбит/сек
Ширина : 1280 пикселей
Высота : 544 пикселя
Соотношение сторон : 2,35:1
Соотношение сторон в оригинале : 2,35:1
Режим частоты кадров : Постоянный
Частота кадров : 23,976 (24000/1001) кадра/сек
Цветовое пространство : YUV
Субдискретизация насыщенности : 4:2:0
Битовая глубина : 10 бит
Бит/(Пиксели*Кадры) : 0.229
Размер потока : 3,74 Гбайт (81%)
Заголовок : HEVC.CLUB
Библиотека кодирования : x265 2.1+74-e5759d587ae2:[Windows][GCC 6.2.0][64 bit] 10bit
Настройки программы : cpuid=1310975 / frame-threads=2 / numa-pools=4 / wpp / no-pmode / no-pme / no-psnr / ssim / log-level=2 / input-csp=1 / input-res=1280x544 / interlace=0 / total-frames=0 / level-idc=41 / high-tier=1 / uhd-bd=0 / ref=6 / no-allow-non-conformance / repeat-headers / annexb / aud / hrd / info / hash=0 / no-temporal-layers / open-gop / min-keyint=23 / keyint=250 / bframes=8 / b-adapt=2 / b-pyramid / bframe-bias=0 / rc-lookahead=60 / lookahead-slices=0 / scenecut=40 / no-intra-refresh / ctu=32 / min-cu-size=8 / no-rect / no-amp / max-tu-size=32 / tu-inter-depth=2 / tu-intra-depth=2 / limit-tu=0 / rdoq-level=1 / signhide / no-tskip / nr-intra=0 / nr-inter=0 / no-constrained-intra / no-strong-intra-smoothing / max-merge=2 / limit-refs=3 / no-limit-modes / me=2 / subme=5 / merange=60 / temporal-mvp / weightp / weightb / no-analyze-src-pics / deblock=-3:-3 / no-sao / no-sao-non-deblock / rd=4 / no-early-skip / no-rskip / no-fast-intra / no-tskip-fast / no-cu-lossless / no-b-intra / rdpenalty=0 / psy-rd=2.00 / psy-rdoq=3.00 / no-rd-refine / analysis-mode=0 / no-lossless / cbqpoffs=0 / crqpoffs=0 / rc=crf / crf=22.0 / qcomp=0.80 / qpstep=6 / stats-write=0 / stats-read=0 / vbv-maxrate=50000 / vbv-bufsize=50000 / vbv-init=0.9 / crf-max=0.0 / crf-min=0.0 / ipratio=1.50 / pbratio=1.10 / aq-mode=1 / aq-strength=0.50 / no-cutree / zone-count=0 / no-strict-cbr / qg-size=32 / no-rc-grain / qpmax=69 / qpmin=0 / sar=255 / sar-width / : / sar-height=408:407 / overscan=0 / videoformat=5 / range=0 / colorprim=2 / transfer=2 / colormatrix=1 / chromaloc=0 / display-window=0 / max-cll=0,0 / min-luma=0 / max-luma=1023 / log2-max-poc-lsb=8 / vui-timing-info / vui-hrd-info / slices=1 / opt-qp-pps / opt-ref-list-length-pps / no-multi-pass-opt-rps / scenecut-bias=0.05
Default : Да
Forced : Да
Цветовой диапазон : Limited
Коэффициенты матрицы : BT.709
Аудио #1
Идентификатор : 2
Формат : AC-3
Формат/Информация : Audio Coding 3
Расширение режима : CM (complete main)
Параметр Endianness формата : Big
Идентификатор кодека : A_AC3
Продолжительность : 2 ч. 19 м.
Вид битрейта : Постоянный
Битрейт : 448 Кбит/сек
Каналы : 6 каналов
Расположение каналов : Front: L C R, Side: L R, LFE
Частота : 48,0 КГц
Частота кадров : 31,250 кадров/сек (1536 spf)
Метод сжатия : С потерями
Размер потока : 447 Мбайт (9%)
Заголовок : Dub
Язык : Russian
Default : Да
Forced : Нет
Аудио #2
Идентификатор : 3
Формат : AC-3
Формат/Информация : Audio Coding 3
Расширение режима : CM (complete main)
Параметр Endianness формата : Big
Идентификатор кодека : A_AC3
Продолжительность : 2 ч. 19 м.
Вид битрейта : Постоянный
Битрейт : 448 Кбит/сек
Каналы : 6 каналов
Расположение каналов : Front: L C R, Side: L R, LFE
Частота : 48,0 КГц
Частота кадров : 31,250 кадров/сек (1536 spf)
Метод сжатия : С потерями
Размер потока : 448 Мбайт (9%)
Заголовок : Original
Язык : English
Default : Нет
Forced : Нет
Текст #1
Идентификатор : 4
Формат : UTF-8
Идентификатор кодека : S_TEXT/UTF8
Идентификатор кодека/Информация : UTF-8 Plain Text
Продолжительность : 2 ч. 5 м.
Битрейт : 2 бит/сек
Count of elements : 50
Размер потока : 2,29 Кбайт (0%)
Заголовок : Forced
Язык : Russian
Default : Нет
Forced : Нет
Текст #2
Идентификатор : 5
Формат : UTF-8
Идентификатор кодека : S_TEXT/UTF8
Идентификатор кодека/Информация : UTF-8 Plain Text
Продолжительность : 2 ч. 13 м.
Битрейт : 134 бит/сек
Count of elements : 1902
Размер потока : 132 Кбайт (0%)
Заголовок : Full
Язык : Russian
Default : Нет
Forced : Нет
Текст #3
Идентификатор : 6
Формат : UTF-8
Идентификатор кодека : S_TEXT/UTF8
Идентификатор кодека/Информация : UTF-8 Plain Text
Продолжительность : 2 ч. 13 м.
Битрейт : 78 бит/сек
Count of elements : 1814
Размер потока : 76,7 Кбайт (0%)
Заголовок : Full
Язык : English
Default : Нет
Forced : Нет
Текст #4
Идентификатор : 7
Формат : UTF-8
Идентификатор кодека : S_TEXT/UTF8
Идентификатор кодека/Информация : UTF-8 Plain Text
Продолжительность : 2 ч. 13 м.
Битрейт : 82 бит/сек
Count of elements : 1841
Размер потока : 80,5 Кбайт (0%)
Заголовок : SDH
Язык : English
Default : Нет
Forced : Нет
Меню
00:00:00.000 : en:Chapter 1
00:09:38.745 : en:Chapter 2
00:19:49.021 : en:Chapter 3
00:34:21.560 : en:Chapter 4
00:45:15.045 : en:Chapter 5
00:49:37.808 : en:Chapter 6
01:02:00.049 : en:Chapter 7
01:05:52.982 : en:Chapter 8
01:10:05.034 : en:Chapter 9
01:15:08.637 : en:Chapter 10
01:17:07.790 : en:Chapter 11
01:19:41.277 : en:Chapter 12
01:35:12.207 : en:Chapter 13
01:39:10.778 : en:Chapter 14
01:48:21.162 : en:Chapter 15
01:56:42.028 : en:Chapter 16
01:58:49.623 : en:Chapter 17
02:05:17.677 : en:Chapter 18
02:09:06.906 : en:Chapter 19
02:14:05.871 : en:Chapter 20
Скриншоты
[Профиль] [ЛС]
Показать сообщения:    
Ответить на тему

Текущее время: 24-Апр 10:31

Часовой пояс: UTC + 3



Вы не можете начинать темы
Вы не можете отвечать на сообщения
Вы не можете редактировать свои сообщения
Вы не можете удалять свои сообщения
Вы не можете голосовать в опросах
Вы не можете прикреплять файлы к сообщениям
Вы не можете скачивать файлы