Сегодня идет свободное скачивание без начисления Download

Сокровище Амазонки / The Rundown (2003) BDRip 720p от NNNB

Ответить на тему
 
Автор Сообщение

Bot ®

Стаж: 1 год 4 месяца

Сообщений: 2405

Создавать темы 07-Янв-2017 02:32

[Цитировать]

- Информация о фильме
Русское название: Сокровище Амазонки
Оригинальное название: The Rundown
Год выхода: 2003
Жанр: боевик, триллер, комедия, приключения
Режиссер: Питер Берг
Выпущено: США
Продолжительность: 01:44:15
Перевод: Дублированный
В ролях: Дуэйн «Скала» Джонсон, Шонн Уильям Скотт, Розарио Доусон, Кристофер Уокен, Юэн Бремнер, Джон Гриз, Уильям Лаккинг, Эрни Рейес мл., Стюарт Ф. Уилсон, Дэннис Кейффер
-Сюжет фильма
Если поступило предложение, от которого нельзя отказаться, — вот и не отказывайся! В качестве расплаты с долгом перед мафией интеллигентному громиле Веку предлагается отправиться в джунгли Амазонки и доставить домой затерявшегося где-то там афериста Трэвиса, блудного сына «крестного отца». Вот только прибыв на место, герой обнаруживает, что шансов доставить свой груз не по частям у него маловато. Непутевый Трэвис перешел дорожку местному авторитету Хэтчеру, начав охоту за легендарным золотым идолом индейцев, на который тот давно мечтал наложить лапу. Беку не остается иного выбора, как призвать на помощь свои незаурядное чувство юмора, стальные мускулы и вступить в сумасшедшую гонку за сокровищем, пока его «клиента» не скормили ягуарам!..
-Файл
Качество: BDRip 720p (исходник Blu-Ray Disc Remux)
Формат: MKV
Видео: 1280x544, 4723 Кбит/сек, 23,976 кадр/сек, AVC, x264, High@L4.1, 2.35:1, 0.283 Бит/[Пиксели*Кадры]
Аудио 1: AC-3, 640 Кбит/сек, 6 канала(ов), 48,0 КГц - Дублированный / Русский
Аудио 2: AC-3, 640 Кбит/сек, 6 канала(ов), 48,0 КГц - Оригинал / Английский
Субтитры: Русские | Полные, Английские | Полные
Форсированные субтитры: Нет
Чаптеры (Главы): Есть
- -
Скриншоты
MediaInfo
Format : Matroska
Format version : Version 2
File size : 4.36 GiB
Duration : 1 h 44 min
Overall bit rate : 5 992 kb/s
Movie name : The Rundown.(2003).BDRip.720p.[envy]
Encoded date : UTC 2017-01-06 07:22:34
Writing application : mkvmerge v5.8.0 ('No Sleep / Pillow') built on Sep 2 2012 15:37:04
Writing library : libebml v1.2.3 + libmatroska v1.3.0
Video
ID : 1
Format : AVC
Format/Info : Advanced Video Codec
Format profile : High@L4.1
Format settings, CABAC : Yes
Format settings, ReFrames : 11 frames
Codec ID : V_MPEG4/ISO/AVC
Duration : 1 h 44 min
Bit rate : 4 723 kb/s
Width : 1 280 pixels
Height : 544 pixels
Display aspect ratio : 2.35:1
Frame rate mode : Constant
Frame rate : 23.976 (24000/1001) FPS
Color space : YUV
Chroma subsampling : 4:2:0
Bit depth : 8 bits
Scan type : Progressive
Bits/(Pixel*Frame) : 0.283
Stream size : 3.34 GiB (77%)
Title : The Rundown.(2003).BDRip.720p.[envy]
Writing library : x264 core 148 r2744 b97ae06
Encoding settings : cabac=1 / ref=11 / deblock=1:-3:-3 / analyse=0x3:0x133 / me=umh / subme=11 / psy=1 / psy_rd=1.00:0.00 / mixed_ref=1 / me_range=32 / chroma_me=1 / trellis=2 / 8x8dct=1 / cqm=0 / deadzone=21,11 / fast_pskip=0 / chroma_qp_offset=-2 / threads=12 / lookahead_threads=1 / sliced_threads=0 / nr=0 / decimate=1 / interlaced=0 / bluray_compat=0 / constrained_intra=0 / bframes=5 / b_pyramid=2 / b_adapt=2 / b_bias=0 / direct=3 / weightb=1 / open_gop=0 / weightp=2 / keyint=240 / keyint_min=23 / scenecut=40 / intra_refresh=0 / rc=2pass / mbtree=0 / bitrate=4723 / ratetol=2.0 / qcomp=0.60 / qpmin=0 / qpmax=69 / qpstep=4 / cplxblur=20.0 / qblur=0.5 / ip_ratio=1.40 / pb_ratio=1.30 / aq=2:0.70
Language : English
Default : Yes
Forced : No
Audio #1
ID : 2
Format : AC-3
Format/Info : Audio Coding 3
Mode extension : CM (complete main)
Format settings, Endianness : Big
Codec ID : A_AC3
Duration : 1 h 44 min
Bit rate mode : Constant
Bit rate : 640 kb/s
Channel(s) : 6 channels
Channel positions : Front: L C R, Side: L R, LFE
Sampling rate : 48.0 kHz
Frame rate : 31.250 FPS (1536 spf)
Compression mode : Lossy
Stream size : 477 MiB (11%)
Title : Dub
Language : Russian
Default : Yes
Forced : No
Audio #2
ID : 3
Format : AC-3
Format/Info : Audio Coding 3
Mode extension : CM (complete main)
Format settings, Endianness : Big
Codec ID : A_AC3
Duration : 1 h 44 min
Bit rate mode : Constant
Bit rate : 640 kb/s
Channel(s) : 6 channels
Channel positions : Front: L C R, Side: L R, LFE
Sampling rate : 48.0 kHz
Frame rate : 31.250 FPS (1536 spf)
Compression mode : Lossy
Stream size : 477 MiB (11%)
Title : Eng
Language : English
Default : No
Forced : No
Text #1
ID : 4
Format : UTF-8
Codec ID : S_TEXT/UTF8
Codec ID/Info : UTF-8 Plain Text
Title : Rus full
Language : Russian
Default : No
Forced : No
Text #2
ID : 5
Format : UTF-8
Codec ID : S_TEXT/UTF8
Codec ID/Info : UTF-8 Plain Text
Title : Eng full [sdh]
Language : English
Default : No
Forced : No
Menu
00:00:00.000 : :00:00:00.000
00:05:57.857 : :00:05:57.857
00:11:31.941 : :00:11:31.941
00:16:29.238 : :00:16:29.238
00:23:49.261 : :00:23:49.261
00:29:18.006 : :00:29:18.006
00:36:12.295 : :00:36:12.295
00:42:17.160 : :00:42:17.160
00:48:35.246 : :00:48:35.246
00:54:23.051 : :00:54:23.051
01:02:12.604 : :01:02:12.604
01:08:52.545 : :01:08:52.545
01:16:15.446 : :01:16:15.446
01:23:27.377 : :01:23:27.377
01:29:43.461 : :01:29:43.461
01:32:50.231 : :01:32:50.231
-
[Профиль] [ЛС]
Показать сообщения:    
Ответить на тему

Текущее время: 19-Ноя 21:12

Часовой пояс: UTC + 3



Вы не можете начинать темы
Вы не можете отвечать на сообщения
Вы не можете редактировать свои сообщения
Вы не можете удалять свои сообщения
Вы не можете голосовать в опросах
Вы не можете прикреплять файлы к сообщениям
Вы не можете скачивать файлы