Гарри Поттер: Коллекция / Harry Potter: Collection (2001-2011) BDRip 1080p

Ответить на тему
 
Автор Сообщение

Bot ®

Стаж: 5 лет 3 месяца

Сообщений: 31145

Откуда: СССР

Создавать темы 07-Янв-2017 10:09

[Цитировать]

Гарри Поттер и философский камень / Harry Potter and the Sorcerer's Stone (2001)
Информация о фильме
Название: Гарри Поттер и философский камень
Оригинальное название: Harry Potter and the Sorcerer's Stone
Год выхода: 2001
Жанр: фэнтези, приключения, семейный
Режиссер: Крис Коламбус
В ролях: Дэниэл Рэдклифф, Руперт Гринт, Эмма Уотсон, Ричард Харрис, Алан Рикман, Мэгги Смит, Робби Колтрейн, Том Фелтон, Мэттью Льюис, Иэн Харт
О фильме: Обычный лондонский мальчик Гарри Поттер на 11-м году жизни узнает, что он — осиротевший сын двух могущественных волшебников, и сам обладает магической силой.
В Хогвартской школе чародейства и волшебства Гарри попадает в водоворот невероятных приключений. Он изучает квиддич — спорт высшего пилотажа, играет в захватывающую игру живыми шахматными фигурами, встречается с Темным Волшебником, который хочет его уничтожить.

Выпущено: Warner Bros. Pictures
Продолжительность: 02:32:22
Перевод: Дублированный
Файл
Кодек: x264
Качество: BDRip (источник: Blu-ray Disc)
Видео: 1920x800 (2,40:1), 23.976 fps, 6206 kbps
Аудио #1: AC-3, 6 ch, 640 kbps (Rus)
Аудио #2: AC-3, 6 ch, 448 kbps (Eng)
Субтитры: Русские, Английские
Скриншоты
MI
Общее
Уникальный идентификатор : 206651149979544460668339294454914805585 (0x9B779053CE232DEFBFDF435DBBE4EF51)
Полное имя : Harry.Potter.and.the.Sorcerer's.Stone.2001.BDRip.1080p.Rus.Eng.mkv
Формат : Matroska
Версия формата : Version 2
Размер файла : 7,76 Гбайт
Продолжительность : 2 ч. 32 м.
Общий поток : 7296 Кбит/сек
Название фильма : Гарри Поттер и философский камень / Harry Potter and the Sorcerer's Stone (2001)
Дата кодирования : UTC 2012-07-31 12:37:57
Программа кодирования : mkvmerge v5.7.0 ('The Whirlwind') built on Jul 8 2012 20:08:51
Библиотека кодирования : libebml v1.2.3 + libmatroska v1.3.0
Видео
Идентификатор : 1
Формат : AVC
Формат/Информация : Advanced Video Codec
Профиль формата : High@L4.1
Параметр CABAC формата : Да
Параметр ReFrames формата : 5 кадров
Идентификатор кодека : V_MPEG4/ISO/AVC
Продолжительность : 2 ч. 32 м.
Битрейт : 6206 Кбит/сек
Ширина : 1920 пикселей
Высота : 800 пикселей
Соотношение сторон : 2,40:1
Частота кадров : 23,976 кадра/сек
Цветовое пространство : YUV
Субдискретизация насыщенности : 4:2:0
Битовая глубина : 8 бит
Тип развёртки : Прогрессивная
Бит/(Пиксели*Кадры) : 0.169
Размер потока : 6,45 Гбайт (83%)
Заголовок : Release by AlexKa
Библиотека кодирования : x264 core 125 r2208 d9d2288
Настройки программы : cabac=1 / ref=5 / deblock=1:-3:-3 / analyse=0x3:0x133 / me=umh / subme=10 / psy=1 / psy_rd=1.00:0.10 / mixed_ref=1 / me_range=32 / chroma_me=1 / trellis=2 / 8x8dct=1 / cqm=0 / deadzone=21,11 / fast_pskip=0 / chroma_qp_offset=-3 / threads=12 / lookahead_threads=2 / sliced_threads=0 / nr=0 / decimate=0 / interlaced=0 / bluray_compat=0 / constrained_intra=0 / bframes=5 / b_pyramid=2 / b_adapt=2 / b_bias=0 / direct=3 / weightb=1 / open_gop=0 / weightp=2 / keyint=240 / keyint_min=23 / scenecut=40 / intra_refresh=0 / rc=2pass / mbtree=0 / bitrate=6206 / ratetol=1.0 / qcomp=0.60 / qpmin=0 / qpmax=69 / qpstep=4 / cplxblur=20.0 / qblur=0.5 / ip_ratio=1.40 / pb_ratio=1.30 / aq=1:0.80
Язык : English
Аудио #1
Идентификатор : 2
Формат : AC-3
Формат/Информация : Audio Coding 3
Расширение режима : CM (complete main)
Идентификатор кодека : A_AC3
Продолжительность : 2 ч. 32 м.
Вид битрейта : Постоянный
Битрейт : 640 Кбит/сек
Каналы : 6 каналов
Расположение каналов : Front: L C R, Side: L R, LFE
Частота : 48,0 КГц
Битовая глубина : 16 бит
Метод сжатия : С потерями
Размер потока : 697 Мбайт (9%)
Заголовок : Rus
Язык : Russian
Аудио #2
Идентификатор : 3
Формат : AC-3
Формат/Информация : Audio Coding 3
Расширение режима : CM (complete main)
Идентификатор кодека : A_AC3
Продолжительность : 2 ч. 32 м.
Вид битрейта : Постоянный
Битрейт : 448 Кбит/сек
Каналы : 6 каналов
Расположение каналов : Front: L C R, Side: L R, LFE
Частота : 48,0 КГц
Битовая глубина : 16 бит
Метод сжатия : С потерями
Размер потока : 488 Мбайт (6%)
Заголовок : Eng
Язык : English
Текст #1
Идентификатор : 4
Формат : UTF-8
Идентификатор кодека : S_TEXT/UTF8
Идентификатор кодека/Информация : UTF-8 Plain Text
Заголовок : Rus
Язык : Russian
Текст #2
Идентификатор : 5
Формат : UTF-8
Идентификатор кодека : S_TEXT/UTF8
Идентификатор кодека/Информация : UTF-8 Plain Text
Заголовок : Eng
Язык : English
Меню
00:00:00.000 : :Chapter 01
00:04:05.411 : :Chapter 02
00:08:11.157 : :Chapter 03
00:12:17.403 : :Chapter 04
00:18:25.270 : :Chapter 05
00:21:43.635 : :Chapter 06
00:24:41.646 : :Chapter 07
00:28:49.561 : :Chapter 08
00:31:05.196 : :Chapter 09
00:34:05.543 : :Chapter 10
00:37:49.600 : :Chapter 11
00:41:29.487 : :Chapter 12
00:46:13.437 : :Chapter 13
00:50:29.026 : :Chapter 14
00:55:04.301 : :Chapter 15
01:00:55.652 : :Chapter 16
01:03:43.986 : :Chapter 17
01:07:48.230 : :Chapter 18
01:13:49.258 : :Chapter 19
01:20:17.979 : :Chapter 20
01:23:54.529 : :Chapter 21
01:28:32.473 : :Chapter 22
01:31:42.497 : :Chapter 23
01:36:42.630 : :Chapter 24
01:42:34.815 : :Chapter 25
01:49:05.038 : :Chapter 26
01:53:21.628 : :Chapter 27
01:58:09.749 : :Chapter 28
02:03:44.750 : :Chapter 29
02:06:56.108 : :Chapter 30
02:10:55.347 : :Chapter 31
02:14:18.884 : :Chapter 32
02:17:29.574 : :Chapter 33
02:21:44.662 : :Chapter 34
02:24:10.808 : :Chapter 35
02:32:21.423 : :Chapter 36
Гарри Поттер и тайная комната / Harry Potter and the Chamber of Secrets (2002)
Информация о фильме
Название: Гарри Поттер и тайная комната
Оригинальное название: Harry Potter and the Chamber of Secrets
Год выхода: 2002
Жанр: фэнтези, детектив, приключения, семейный
Режиссер: Крис Коламбус
В ролях: Дэниэл Рэдклифф, Руперт Гринт, Эмма Уотсон, Том Фелтон, Кеннет Брэна, Бонни Райт, Алан Рикман, Ричард Харрис, Мэгги Смит, Робби Колтрейн
О фильме: Гарри Поттер переходит на второй курс Школы чародейства и волшебства Хогвартс. Эльф Добби предупреждает Гарри об опасности, которая поджидает его там, и просит больше не возвращаться в школу.
Юный волшебник не следует совету эльфа и становится свидетелем таинственных событий, разворачивающихся в Хогвартсе. Вскоре Гарри и его друзья узнают о существовании Тайной Комнаты и сталкиваются с новыми приключениями, пытаясь победить темные силы.

Выпущено: Warner Bros. Pictures
Продолжительность: 02:40:56
Перевод: Дублированный
Файл
Кодек: x264
Качество: BDRip (источник: Blu-ray Disc)
Видео: 1920x800 (2,40:1), 23.976 fps, 5626 kbps
Аудио #1: AC-3, 6 ch, 640 kbps (Rus)
Аудио #2: AC-3, 6 ch, 640 kbps (Eng)
Субтитры: Русские (форс,полные), Английские
Скриншоты
MI
Общее
Уникальный идентификатор : 229579939012793081291616476163757958342 (0xACB77CE829D8EAABA4077DBA1195E4C6)
Полное имя : Harry.Potter.and.the.Chamber.of.Secrets.2002.BDRip.1080p.Rus.Eng.mkv
Формат : Matroska
Версия формата : Version 2
Размер файла : 7,76 Гбайт
Продолжительность : 2 ч. 40 м.
Общий поток : 6907 Кбит/сек
Название фильма : Гарри Поттер и тайная комната / Harry Potter and the Chamber of Secrets (2002)
Дата кодирования : UTC 2012-07-31 14:44:04
Программа кодирования : mkvmerge v5.7.0 ('The Whirlwind') built on Jul 8 2012 20:08:51
Библиотека кодирования : libebml v1.2.3 + libmatroska v1.3.0
Видео
Идентификатор : 1
Формат : AVC
Формат/Информация : Advanced Video Codec
Профиль формата : High@L4.1
Параметр CABAC формата : Да
Параметр ReFrames формата : 5 кадров
Идентификатор кодека : V_MPEG4/ISO/AVC
Продолжительность : 2 ч. 40 м.
Битрейт : 5626 Кбит/сек
Ширина : 1920 пикселей
Высота : 800 пикселей
Соотношение сторон : 2,40:1
Частота кадров : 23,976 кадра/сек
Цветовое пространство : YUV
Субдискретизация насыщенности : 4:2:0
Битовая глубина : 8 бит
Тип развёртки : Прогрессивная
Бит/(Пиксели*Кадры) : 0.153
Размер потока : 6,17 Гбайт (79%)
Заголовок : Release by AlexKa
Библиотека кодирования : x264 core 125 r2208 d9d2288
Настройки программы : cabac=1 / ref=5 / deblock=1:-3:-3 / analyse=0x3:0x133 / me=umh / subme=10 / psy=1 / psy_rd=1.00:0.10 / mixed_ref=1 / me_range=32 / chroma_me=1 / trellis=2 / 8x8dct=1 / cqm=0 / deadzone=21,11 / fast_pskip=0 / chroma_qp_offset=-3 / threads=12 / lookahead_threads=2 / sliced_threads=0 / nr=0 / decimate=0 / interlaced=0 / bluray_compat=0 / constrained_intra=0 / bframes=5 / b_pyramid=2 / b_adapt=2 / b_bias=0 / direct=3 / weightb=1 / open_gop=0 / weightp=2 / keyint=240 / keyint_min=23 / scenecut=40 / intra_refresh=0 / rc=2pass / mbtree=0 / bitrate=5626 / ratetol=1.0 / qcomp=0.60 / qpmin=0 / qpmax=69 / qpstep=4 / cplxblur=20.0 / qblur=0.5 / ip_ratio=1.40 / pb_ratio=1.30 / aq=1:0.80
Язык : English
Аудио #1
Идентификатор : 2
Формат : AC-3
Формат/Информация : Audio Coding 3
Расширение режима : CM (complete main)
Идентификатор кодека : A_AC3
Продолжительность : 2 ч. 40 м.
Вид битрейта : Постоянный
Битрейт : 640 Кбит/сек
Каналы : 6 каналов
Расположение каналов : Front: L C R, Side: L R, LFE
Частота : 48,0 КГц
Битовая глубина : 16 бит
Метод сжатия : С потерями
Размер потока : 737 Мбайт (9%)
Заголовок : Rus
Язык : Russian
Аудио #2
Идентификатор : 3
Формат : AC-3
Формат/Информация : Audio Coding 3
Расширение режима : CM (complete main)
Идентификатор кодека : A_AC3
Продолжительность : 2 ч. 40 м.
Вид битрейта : Постоянный
Битрейт : 640 Кбит/сек
Каналы : 6 каналов
Расположение каналов : Front: L C R, Side: L R, LFE
Частота : 48,0 КГц
Битовая глубина : 16 бит
Метод сжатия : С потерями
Размер потока : 737 Мбайт (9%)
Заголовок : Eng
Язык : English
Текст #1
Идентификатор : 4
Формат : UTF-8
Идентификатор кодека : S_TEXT/UTF8
Идентификатор кодека/Информация : UTF-8 Plain Text
Заголовок : Rus forced
Язык : Russian
Текст #2
Идентификатор : 5
Формат : UTF-8
Идентификатор кодека : S_TEXT/UTF8
Идентификатор кодека/Информация : UTF-8 Plain Text
Заголовок : Rus
Язык : Russian
Текст #3
Идентификатор : 6
Формат : UTF-8
Идентификатор кодека : S_TEXT/UTF8
Идентификатор кодека/Информация : UTF-8 Plain Text
Заголовок : Eng
Язык : English
Меню
00:00:00.000 : :Chapter 01
00:03:01.014 : :Chapter 02
00:07:55.558 : :Chapter 03
00:10:40.640 : :Chapter 04
00:14:07.096 : :Chapter 05
00:17:57.743 : :Chapter 06
00:22:16.126 : :Chapter 07
00:25:49.631 : :Chapter 08
00:28:50.353 : :Chapter 09
00:31:07.991 : :Chapter 10
00:35:14.195 : :Chapter 11
00:38:00.403 : :Chapter 12
00:42:47.982 : :Chapter 13
00:48:16.143 : :Chapter 14
00:52:16.133 : :Chapter 15
00:57:56.973 : :Chapter 16
01:03:13.873 : :Chapter 17
01:07:50.524 : :Chapter 18
01:11:56.145 : :Chapter 19
01:17:22.387 : :Chapter 20
01:21:33.847 : :Chapter 21
01:25:39.926 : :Chapter 22
01:29:42.251 : :Chapter 23
01:33:30.354 : :Chapter 24
01:37:42.898 : :Chapter 25
01:42:49.079 : :Chapter 26
01:47:01.623 : :Chapter 27
01:51:07.994 : :Chapter 28
01:55:26.210 : :Chapter 29
02:00:53.287 : :Chapter 30
02:04:09.775 : :Chapter 31
02:09:32.306 : :Chapter 32
02:14:32.439 : :Chapter 33
02:18:05.944 : :Chapter 34
02:21:20.221 : :Chapter 35
02:26:35.453 : :Chapter 36
02:31:43.094 : :Chapter 37
02:40:55.646 : :Chapter 38
Гарри Поттер и узник Азкабана / Harry Potter and the Prisoner of Azkaban (2004)
Информация о фильме
Название: Гарри Поттер и узник Азкабана
Оригинальное название: Harry Potter and the Prisoner of Azkaban
Год выхода: 2004
Жанр: фэнтези, детектив, приключения, семейный
Режиссер: Альфонсо Куарон
В ролях: Дэниэл Рэдклифф, Руперт Гринт, Эмма Уотсон, Том Фелтон, Гари Олдман, Дэвид Тьюлис, Майкл Гэмбон, Алан Рикман, Мэгги Смит, Робби Колтрейн
О фильме: В третьей части экранизации бестселлера о юном волшебнике, полюбившиеся всем герои — Гарри Поттер, Рон и Гермиона — возвращаются уже на третий курс школы чародейства и волшебства «Хогвартс». На этот раз они должны раскрыть тайну узника, сбежавшего из зловещей тюрьмы Азкабан, чье пребывание на воле создает для Гарри смертельную опасность…

Выпущено: Warner Bros. Pictures
Продолжительность: 02:21:42
Перевод: Дублированный
Файл
Кодек: x264
Качество: BDRip (источник: Blu-ray Disc)
Видео: 1920x800 (2,40:1), 23.976 fps, 6562 kbps
Аудио #1: AC-3, 6 ch, 640 kbps (Rus)
Аудио #2: AC-3, 6 ch, 640 kbps (Eng)
Субтитры: Русские, Английские
Скриншоты
MI
Общее
Уникальный идентификатор : 215124725110952786587584569461072577746 (0xA1D783D62EE39ED5AF88EBD3E351C4D2)
Полное имя : Harry.Potter.and.the.Prisoner.of.Azkaban.2004.BDRip.1080p.Rus.Eng.mkv
Формат : Matroska
Версия формата : Version 2
Размер файла : 7,76 Гбайт
Продолжительность : 2 ч. 21 м.
Общий поток : 7844 Кбит/сек
Название фильма : Гарри Поттер и узник Азкабана / Harry Potter and the Prisoner of Azkaban (2004)
Дата кодирования : UTC 2012-07-31 12:50:02
Программа кодирования : mkvmerge v5.7.0 ('The Whirlwind') built on Jul 8 2012 20:08:51
Библиотека кодирования : libebml v1.2.3 + libmatroska v1.3.0
Видео
Идентификатор : 1
Формат : AVC
Формат/Информация : Advanced Video Codec
Профиль формата : High@L4.1
Параметр CABAC формата : Да
Параметр ReFrames формата : 5 кадров
Идентификатор кодека : V_MPEG4/ISO/AVC
Продолжительность : 2 ч. 21 м.
Битрейт : 6562 Кбит/сек
Ширина : 1920 пикселей
Высота : 800 пикселей
Соотношение сторон : 2,40:1
Частота кадров : 23,976 кадра/сек
Цветовое пространство : YUV
Субдискретизация насыщенности : 4:2:0
Битовая глубина : 8 бит
Тип развёртки : Прогрессивная
Бит/(Пиксели*Кадры) : 0.178
Размер потока : 6,34 Гбайт (82%)
Заголовок : Release by AlexKa
Библиотека кодирования : x264 core 125 r2208 d9d2288
Настройки программы : cabac=1 / ref=5 / deblock=1:-3:-3 / analyse=0x3:0x133 / me=umh / subme=10 / psy=1 / psy_rd=1.00:0.10 / mixed_ref=1 / me_range=32 / chroma_me=1 / trellis=2 / 8x8dct=1 / cqm=0 / deadzone=21,11 / fast_pskip=0 / chroma_qp_offset=-3 / threads=12 / lookahead_threads=2 / sliced_threads=0 / nr=0 / decimate=0 / interlaced=0 / bluray_compat=0 / constrained_intra=0 / bframes=5 / b_pyramid=2 / b_adapt=2 / b_bias=0 / direct=3 / weightb=1 / open_gop=0 / weightp=2 / keyint=240 / keyint_min=23 / scenecut=40 / intra_refresh=0 / rc=2pass / mbtree=0 / bitrate=6562 / ratetol=1.0 / qcomp=0.60 / qpmin=0 / qpmax=69 / qpstep=4 / cplxblur=20.0 / qblur=0.5 / ip_ratio=1.40 / pb_ratio=1.30 / aq=1:0.80
Язык : English
Аудио #1
Идентификатор : 2
Формат : AC-3
Формат/Информация : Audio Coding 3
Расширение режима : CM (complete main)
Идентификатор кодека : A_AC3
Продолжительность : 2 ч. 21 м.
Вид битрейта : Постоянный
Битрейт : 640 Кбит/сек
Каналы : 6 каналов
Расположение каналов : Front: L C R, Side: L R, LFE
Частота : 48,0 КГц
Битовая глубина : 16 бит
Метод сжатия : С потерями
Размер потока : 649 Мбайт (8%)
Заголовок : Rus
Язык : Russian
Аудио #2
Идентификатор : 3
Формат : AC-3
Формат/Информация : Audio Coding 3
Расширение режима : CM (complete main)
Идентификатор кодека : A_AC3
Продолжительность : 2 ч. 21 м.
Вид битрейта : Постоянный
Битрейт : 640 Кбит/сек
Каналы : 6 каналов
Расположение каналов : Front: L C R, Side: L R, LFE
Частота : 48,0 КГц
Битовая глубина : 16 бит
Метод сжатия : С потерями
Размер потока : 649 Мбайт (8%)
Заголовок : Eng
Язык : English
Текст #1
Идентификатор : 4
Формат : UTF-8
Идентификатор кодека : S_TEXT/UTF8
Идентификатор кодека/Информация : UTF-8 Plain Text
Заголовок : Rus
Язык : Russian
Текст #2
Идентификатор : 5
Формат : UTF-8
Идентификатор кодека : S_TEXT/UTF8
Идентификатор кодека/Информация : UTF-8 Plain Text
Заголовок : Eng
Язык : English
Меню
00:00:00.000 : :Chapter 01
00:01:40.100 : :Chapter 02
00:06:36.229 : :Chapter 03
00:12:45.931 : :Chapter 04
00:14:52.516 : :Chapter 05
00:16:12.513 : :Chapter 06
00:18:56.218 : :Chapter 07
00:23:50.387 : :Chapter 08
00:28:50.729 : :Chapter 09
00:31:21.838 : :Chapter 10
00:38:50.161 : :Chapter 11
00:44:45.307 : :Chapter 12
00:47:37.813 : :Chapter 13
00:49:39.935 : :Chapter 14
00:53:42.844 : :Chapter 15
00:57:28.403 : :Chapter 16
01:01:23.721 : :Chapter 17
01:03:22.924 : :Chapter 18
01:07:10.985 : :Chapter 19
01:11:53.475 : :Chapter 20
01:19:10.078 : :Chapter 21
01:22:29.945 : :Chapter 22
01:27:30.870 : :Chapter 23
01:30:13.366 : :Chapter 24
01:34:19.028 : :Chapter 25
01:36:56.894 : :Chapter 26
01:42:24.471 : :Chapter 27
01:45:40.334 : :Chapter 28
01:50:03.597 : :Chapter 29
01:55:33.343 : :Chapter 30
02:00:07.408 : :Chapter 31
02:03:16.055 : :Chapter 32
02:06:02.513 : :Chapter 33
02:08:42.923 : :Chapter 34
02:09:47.404 : :Chapter 35
02:21:41.910 : :Chapter 36
Гарри Поттер и кубок огня / Harry Potter and the Goblet of Fire (2005)
Информация о фильме
Название: Гарри Поттер и кубок огня
Оригинальное название: Harry Potter and the Goblet of Fire
Год выхода: 2005
Жанр: фэнтези, детектив, приключения, семейный
Режиссер: Майк Ньюэлл
В ролях: Дэниэл Рэдклифф, Руперт Гринт, Эмма Уотсон, Брендан Глисон, Алан Рикман, Майкл Гэмбон, Рэйф Файнс, Роберт Паттинсон, Робби Колтрейн, Мэгги Смит
О фильме: Гарри Поттер, Рон и Гермиона возвращаются на четвертый курс школы чародейства и волшебства «Хогвартс». При таинственных обстоятельствах Гарри отобран в число участников опасного соревнования — Турнира Трех Волшебников, однако проблема в том, что все его соперники — намного старше и сильнее.
К тому же, знаки указывают на возвращение Лорда Волдеморта. Вскоре Гарри предстоит побороться не только за победу в соревновании, но и, прежде всего, за свою жизнь…

Выпущено: Warner Bros. Pictures
Продолжительность: 02:37:05
Перевод: Дублированный
Файл
Кодек: x264
Качество: BDRip (источник: Blu-ray Disc)
Видео: 1920x800 (2,40:1), 23.976 fps, 6178 kbps
Аудио #1: AC-3, 6 ch, 448 kbps (Rus)
Аудио #2: AC-3, 6 ch, 448 kbps (Eng)
Субтитры: Русские, Английские
Скриншоты
MI
Общее
Уникальный идентификатор : 220699264554998684443833793352122093805 (0xA60921D9E53E8544BD38BA040CDDD0ED)
Полное имя : Harry.Potter.and.the.Goblet.of.Fire.2005.BDRip.1080p.Rus.Eng.mkv
Формат : Matroska
Версия формата : Version 2
Размер файла : 7,76 Гбайт
Продолжительность : 2 ч. 37 м.
Общий поток : 7074 Кбит/сек
Название фильма : Гарри Поттер и кубок огня / Harry Potter and the Goblet of Fire (2005)
Дата кодирования : UTC 2012-07-31 12:55:16
Программа кодирования : mkvmerge v5.7.0 ('The Whirlwind') built on Jul 8 2012 20:08:51
Библиотека кодирования : libebml v1.2.3 + libmatroska v1.3.0
Видео
Идентификатор : 1
Формат : AVC
Формат/Информация : Advanced Video Codec
Профиль формата : High@L4.1
Параметр CABAC формата : Да
Параметр ReFrames формата : 5 кадров
Идентификатор кодека : V_MPEG4/ISO/AVC
Продолжительность : 2 ч. 37 м.
Битрейт : 6178 Кбит/сек
Ширина : 1920 пикселей
Высота : 800 пикселей
Соотношение сторон : 2,40:1
Частота кадров : 23,976 кадра/сек
Цветовое пространство : YUV
Субдискретизация насыщенности : 4:2:0
Битовая глубина : 8 бит
Тип развёртки : Прогрессивная
Бит/(Пиксели*Кадры) : 0.168
Размер потока : 6,62 Гбайт (85%)
Заголовок : Release by AlexKa
Библиотека кодирования : x264 core 125 r2208 d9d2288
Настройки программы : cabac=1 / ref=5 / deblock=1:-3:-3 / analyse=0x3:0x133 / me=umh / subme=10 / psy=1 / psy_rd=1.00:0.10 / mixed_ref=1 / me_range=32 / chroma_me=1 / trellis=2 / 8x8dct=1 / cqm=0 / deadzone=21,11 / fast_pskip=0 / chroma_qp_offset=-3 / threads=12 / lookahead_threads=2 / sliced_threads=0 / nr=0 / decimate=0 / interlaced=0 / bluray_compat=0 / constrained_intra=0 / bframes=5 / b_pyramid=2 / b_adapt=2 / b_bias=0 / direct=3 / weightb=1 / open_gop=0 / weightp=2 / keyint=240 / keyint_min=23 / scenecut=40 / intra_refresh=0 / rc=2pass / mbtree=0 / bitrate=6178 / ratetol=1.0 / qcomp=0.60 / qpmin=0 / qpmax=69 / qpstep=4 / cplxblur=20.0 / qblur=0.5 / ip_ratio=1.40 / pb_ratio=1.30 / aq=1:0.80
Язык : English
Аудио #1
Идентификатор : 2
Формат : AC-3
Формат/Информация : Audio Coding 3
Расширение режима : CM (complete main)
Идентификатор кодека : A_AC3
Продолжительность : 2 ч. 37 м.
Вид битрейта : Постоянный
Битрейт : 448 Кбит/сек
Каналы : 6 каналов
Расположение каналов : Front: L C R, Side: L R, LFE
Частота : 48,0 КГц
Битовая глубина : 16 бит
Метод сжатия : С потерями
Размер потока : 503 Мбайт (6%)
Заголовок : Rus
Язык : Russian
Аудио #2
Идентификатор : 3
Формат : AC-3
Формат/Информация : Audio Coding 3
Расширение режима : CM (complete main)
Идентификатор кодека : A_AC3
Продолжительность : 2 ч. 37 м.
Вид битрейта : Постоянный
Битрейт : 448 Кбит/сек
Каналы : 6 каналов
Расположение каналов : Front: L C R, Side: L R, LFE
Частота : 48,0 КГц
Битовая глубина : 16 бит
Метод сжатия : С потерями
Размер потока : 503 Мбайт (6%)
Заголовок : Eng
Язык : English
Текст #1
Идентификатор : 4
Формат : UTF-8
Идентификатор кодека : S_TEXT/UTF8
Идентификатор кодека/Информация : UTF-8 Plain Text
Заголовок : Rus
Язык : Russian
Текст #2
Идентификатор : 5
Формат : UTF-8
Идентификатор кодека : S_TEXT/UTF8
Идентификатор кодека/Информация : UTF-8 Plain Text
Заголовок : Eng
Язык : English
Меню
00:00:00.000 : :Chapter 01
00:03:46.559 : :Chapter 02
00:06:09.369 : :Chapter 03
00:09:50.089 : :Chapter 04
00:13:45.324 : :Chapter 05
00:19:14.987 : :Chapter 06
00:23:09.388 : :Chapter 07
00:29:01.573 : :Chapter 08
00:36:26.684 : :Chapter 09
00:39:05.009 : :Chapter 10
00:41:32.489 : :Chapter 11
00:45:36.400 : :Chapter 12
00:49:07.778 : :Chapter 13
00:54:06.243 : :Chapter 14
01:02:46.596 : :Chapter 15
01:09:12.982 : :Chapter 16
01:14:43.979 : :Chapter 17
01:22:27.609 : :Chapter 18
01:30:34.762 : :Chapter 19
01:39:29.296 : :Chapter 20
01:42:42.489 : :Chapter 21
01:47:22.936 : :Chapter 22
01:50:19.279 : :Chapter 23
01:58:54.460 : :Chapter 24
02:02:02.315 : :Chapter 25
02:06:36.589 : :Chapter 26
02:10:01.627 : :Chapter 27
02:17:38.083 : :Chapter 28
02:23:48.620 : :Chapter 29
02:37:05.249 : :Chapter 30
Гарри Поттер и орден Феникса / Harry Potter and the Order of the Phoenix (2007)
Информация о фильме
Название: Гарри Поттер и орден Феникса
Оригинальное название: Harry Potter and the Order of the Phoenix
Год выхода: 2007
Жанр: фэнтези, детектив, приключения, семейный
Режиссер: Дэвид Йэтс
В ролях: Дэниэл Рэдклифф, Руперт Гринт, Эмма Уотсон, Гари Олдман, Рэйф Файнс, Майкл Гэмбон, Том Фелтон, Имелда Стонтон, Эванна Линч, Алан Рикман
О фильме: Гарри проводит свой пятый год обучения в школе Хогвартс и обнаруживает, что многие из членов волшебного сообщества отрицают сам факт недавнего состязания юного волшебника с воплощением вселенского зла Волдемортом, делая вид, что не имеют ни малейшего представления о том, что злодей вернулся.
Опасаясь, что почтенный глава Хогвартса Альбус Дамблдор распространяет лживые слухи о возвращении Волдеморта, стремясь подорвать авторитет Министра Магии Корнелиуса Фаджа и в дальнейшем занять его место, Корнелиус назначает нового профессора защиты от темных искусств, который должен будет пристально следить за Дамблдором и студентами Хогвартса.
Но одобренный министерством курс лекций по защитной магии профессора Долорес Амбридж оказывается на практике абсолютно бесполезным — юные волшебники просто неспособны противостоять действию темных сил, угрожающих им и всему волшебному сообществу. И тогда, по настоянию своих друзей, Гермионы и Рона, Гарри берет инициативу в свои руки.
Тайно встречаясь с небольшой группой студентов, называющей себя Отрядом Дамблдора, Гарри обучает их самозащите от темных сил, готовя отважных волшебников к необычной схватке, которая ждет их впереди.

Выпущено: Warner Bros. Pictures
Продолжительность: 02:18:14
Перевод: Дублированный
Файл
Кодек: x264
Качество: BDRip (источник: Blu-ray Disc)
Видео: 1920x800 (2,40:1), 23.976 fps, 6760 kbps
Аудио #1: AC-3, 6 ch, 640 kbps (Rus)
Аудио #2: AC-3, 6 ch, 640 kbps (Eng)
Субтитры: Русские (форс,полные), Английские
Скриншоты
MI
Общее
Уникальный идентификатор : 206915283659150623629394894471516602220 (0x9BAA6F1F8AEFB0C2BA8553F958973F6C)
Полное имя : Harry.Potter.and.the.Order.of.the.Phoenix.2007.BDRip.1080p.Rus.Eng.mkv
Формат : Matroska
Версия формата : Version 2
Размер файла : 7,76 Гбайт
Продолжительность : 2 ч. 18 м.
Общий поток : 8039 Кбит/сек
Название фильма : Гарри Поттер и орден Феникса / Harry Potter and the Order of the Phoenix (2007)
Дата кодирования : UTC 2012-07-31 07:22:50
Программа кодирования : mkvmerge v5.7.0 ('The Whirlwind') built on Jul 8 2012 20:08:51
Библиотека кодирования : libebml v1.2.3 + libmatroska v1.3.0
Видео
Идентификатор : 1
Формат : AVC
Формат/Информация : Advanced Video Codec
Профиль формата : High@L4.1
Параметр CABAC формата : Да
Параметр ReFrames формата : 5 кадров
Идентификатор кодека : V_MPEG4/ISO/AVC
Продолжительность : 2 ч. 18 м.
Битрейт : 6760 Кбит/сек
Ширина : 1920 пикселей
Высота : 800 пикселей
Соотношение сторон : 2,40:1
Частота кадров : 23,976 кадра/сек
Цветовое пространство : YUV
Субдискретизация насыщенности : 4:2:0
Битовая глубина : 8 бит
Тип развёртки : Прогрессивная
Бит/(Пиксели*Кадры) : 0.184
Размер потока : 6,37 Гбайт (82%)
Заголовок : Release by AlexKa
Библиотека кодирования : x264 core 125 r2208 d9d2288
Настройки программы : cabac=1 / ref=5 / deblock=1:-3:-3 / analyse=0x3:0x133 / me=umh / subme=10 / psy=1 / psy_rd=1.00:0.10 / mixed_ref=1 / me_range=32 / chroma_me=1 / trellis=2 / 8x8dct=1 / cqm=0 / deadzone=21,11 / fast_pskip=0 / chroma_qp_offset=-3 / threads=12 / lookahead_threads=2 / sliced_threads=0 / nr=0 / decimate=0 / interlaced=0 / bluray_compat=0 / constrained_intra=0 / bframes=5 / b_pyramid=2 / b_adapt=2 / b_bias=0 / direct=3 / weightb=1 / open_gop=0 / weightp=2 / keyint=240 / keyint_min=23 / scenecut=40 / intra_refresh=0 / rc=2pass / mbtree=0 / bitrate=6760 / ratetol=1.0 / qcomp=0.60 / qpmin=0 / qpmax=69 / qpstep=4 / cplxblur=20.0 / qblur=0.5 / ip_ratio=1.40 / pb_ratio=1.30 / aq=1:0.80
Язык : English
Аудио #1
Идентификатор : 2
Формат : AC-3
Формат/Информация : Audio Coding 3
Расширение режима : CM (complete main)
Идентификатор кодека : A_AC3
Продолжительность : 2 ч. 18 м.
Вид битрейта : Постоянный
Битрейт : 640 Кбит/сек
Каналы : 6 каналов
Расположение каналов : Front: L C R, Side: L R, LFE
Частота : 48,0 КГц
Битовая глубина : 16 бит
Метод сжатия : С потерями
Размер потока : 633 Мбайт (8%)
Заголовок : Rus
Язык : Russian
Аудио #2
Идентификатор : 3
Формат : AC-3
Формат/Информация : Audio Coding 3
Расширение режима : CM (complete main)
Идентификатор кодека : A_AC3
Продолжительность : 2 ч. 18 м.
Вид битрейта : Постоянный
Битрейт : 640 Кбит/сек
Каналы : 6 каналов
Расположение каналов : Front: L C R, Side: L R, LFE
Частота : 48,0 КГц
Битовая глубина : 16 бит
Метод сжатия : С потерями
Размер потока : 633 Мбайт (8%)
Заголовок : Eng
Язык : English
Текст #1
Идентификатор : 4
Формат : UTF-8
Идентификатор кодека : S_TEXT/UTF8
Идентификатор кодека/Информация : UTF-8 Plain Text
Заголовок : Rus forced
Язык : Russian
Текст #2
Идентификатор : 5
Формат : UTF-8
Идентификатор кодека : S_TEXT/UTF8
Идентификатор кодека/Информация : UTF-8 Plain Text
Заголовок : Rus
Язык : Russian
Текст #3
Идентификатор : 6
Формат : UTF-8
Идентификатор кодека : S_TEXT/UTF8
Идентификатор кодека/Информация : UTF-8 Plain Text
Заголовок : Eng
Язык : English
Меню
00:00:00.000 : :Chapter 01
00:04:50.957 : :Chapter 02
00:10:16.782 : :Chapter 03
00:15:19.919 : :Chapter 04
00:17:43.228 : :Chapter 05
00:20:52.417 : :Chapter 06
00:25:33.532 : :Chapter 07
00:28:07.352 : :Chapter 08
00:30:20.985 : :Chapter 09
00:34:53.925 : :Chapter 10
00:37:41.092 : :Chapter 11
00:41:48.506 : :Chapter 12
00:44:57.528 : :Chapter 13
00:50:57.387 : :Chapter 14
00:56:37.394 : :Chapter 15
01:03:28.638 : :Chapter 16
01:07:39.055 : :Chapter 17
01:11:16.105 : :Chapter 18
01:16:30.252 : :Chapter 19
01:19:16.585 : :Chapter 20
01:25:30.959 : :Chapter 21
01:31:30.651 : :Chapter 22
01:34:49.850 : :Chapter 23
01:37:42.356 : :Chapter 24
01:41:40.260 : :Chapter 25
01:45:59.353 : :Chapter 26
01:48:37.177 : :Chapter 27
01:52:40.920 : :Chapter 28
01:57:30.710 : :Chapter 29
02:03:33.239 : :Chapter 30
02:05:50.709 : :Chapter 31
02:08:26.865 : :Chapter 32
02:18:14.202 : :Chapter 33
Гарри Поттер и Принц-полукровка / Harry Potter and the Half-Blood Prince (2009)
Информация о фильме
Название: Гарри Поттер и Принц-полукровка
Оригинальное название: Harry Potter and the Half-Blood Prince
Год выхода: 2009
Жанр: фэнтези, детектив, приключения, семейный
Режиссер: Дэвид Йэтс
В ролях: Дэниэл Рэдклифф, Руперт Гринт, Эмма Уотсон, Майкл Гэмбон, Джим Броудбент, Бонни Райт, Хелена Бонем Картер, Алан Рикман, Том Фелтон, Эванна Линч
О фильме: Теперь не только мир волшебников, но и мир маглов ощущает на себе все возрастающую силу Волан-де-Морта, а Хогвартс уже никак не назовешь надежным убежищем, каким он был раньше. Гарри подозревает, что в самом замке затаилась некая опасность, но Дамблдор больше сосредоточен на том, чтобы подготовить его к финальной схватке, которая, как он знает, уже не за горами. Вместе они пытаются разгадать секрет бессмертия Волан-де-Морта, а для этого Дамблдор приглашает на должность преподавателя по зельеварению своего старинного друга и коллегу — профессора Горация Слизнорта, который обожает устраивать вечеринки для избранных и гордится своими обширными связями в высших кругах. Но этот бонвиван и не подозревает, что как раз от него Дамблдор надеется заполучить самую важную информацию о крестражах.
Тем временем учеников атакуют самые разные враги, а подростковые эмоции хлещут через край. Гарри начинает понимать, что становится все более неравнодушным к Джинни, однако, и Дин Томас тоже. А Лаванда Браун вбила себе в голову, что Рон — тот самый единственный, которого она ждет, да вот только не учла волшебного эффекта шоколадных конфет Ромильды Вейн! Ну и, наконец, Гермиона пылает жгучей ревностью, но старается не показывать своих чувств. Пока романтические отношения расцветают, лишь один ученик остается в стороне. Он твердо намерен оставить свою метку, темную метку. Любовь витает в воздухе, но впереди ждет беда, и Хогвартс, возможно, уже никогда не будет прежним.

Выпущено: Warner Bros. Pictures
Продолжительность: 02:33:31
Перевод: Дублированный
Файл
Кодек: x264
Качество: BDRip (источник: Blu-ray Disc)
Видео: 1920x800 (2,40:1), 23.976 fps, 6150 kbps
Аудио #1: AC-3, 6 ch, 448 kbps (Rus)
Аудио #2: AC-3, 6 ch, 640 kbps (Eng)
Субтитры: Русские (форс,полные), Английские
Скриншоты
MI
Общее
Уникальный идентификатор : 249496282788268153082284290748150097547 (0xBBB33C77D58711029DBAD3F4B812A68B)
Полное имя : Harry.Potter.and.the.Half-Blood.Prince.2009.BDRip.1080p.Rus.Eng.mkv
Формат : Matroska
Версия формата : Version 2
Размер файла : 7,76 Гбайт
Продолжительность : 2 ч. 33 м.
Общий поток : 7240 Кбит/сек
Название фильма : Гарри Поттер и Принц-полукровка / Harry Potter and the Half-Blood Prince (2009)
Дата кодирования : UTC 2012-07-31 08:13:32
Программа кодирования : mkvmerge v5.7.0 ('The Whirlwind') built on Jul 8 2012 20:08:51
Библиотека кодирования : libebml v1.2.3 + libmatroska v1.3.0
Видео
Идентификатор : 1
Формат : AVC
Формат/Информация : Advanced Video Codec
Профиль формата : High@L4.1
Параметр CABAC формата : Да
Параметр ReFrames формата : 5 кадров
Идентификатор кодека : V_MPEG4/ISO/AVC
Продолжительность : 2 ч. 33 м.
Битрейт : 6150 Кбит/сек
Ширина : 1920 пикселей
Высота : 800 пикселей
Соотношение сторон : 2,40:1
Частота кадров : 23,976 кадра/сек
Цветовое пространство : YUV
Субдискретизация насыщенности : 4:2:0
Битовая глубина : 8 бит
Тип развёртки : Прогрессивная
Бит/(Пиксели*Кадры) : 0.167
Размер потока : 6,44 Гбайт (83%)
Заголовок : Release by AlexKa
Библиотека кодирования : x264 core 125 r2208 d9d2288
Настройки программы : cabac=1 / ref=5 / deblock=1:-3:-3 / analyse=0x3:0x133 / me=umh / subme=10 / psy=1 / psy_rd=1.00:0.10 / mixed_ref=1 / me_range=32 / chroma_me=1 / trellis=2 / 8x8dct=1 / cqm=0 / deadzone=21,11 / fast_pskip=0 / chroma_qp_offset=-3 / threads=12 / lookahead_threads=2 / sliced_threads=0 / nr=0 / decimate=0 / interlaced=0 / bluray_compat=0 / constrained_intra=0 / bframes=5 / b_pyramid=2 / b_adapt=2 / b_bias=0 / direct=3 / weightb=1 / open_gop=0 / weightp=2 / keyint=240 / keyint_min=23 / scenecut=40 / intra_refresh=0 / rc=2pass / mbtree=0 / bitrate=6150 / ratetol=1.0 / qcomp=0.60 / qpmin=0 / qpmax=69 / qpstep=4 / cplxblur=20.0 / qblur=0.5 / ip_ratio=1.40 / pb_ratio=1.30 / aq=1:0.80
Язык : English
Аудио #1
Идентификатор : 2
Формат : AC-3
Формат/Информация : Audio Coding 3
Расширение режима : CM (complete main)
Идентификатор кодека : A_AC3
Продолжительность : 2 ч. 33 м.
Вид битрейта : Постоянный
Битрейт : 448 Кбит/сек
Каналы : 6 каналов
Расположение каналов : Front: L C R, Side: L R, LFE
Частота : 48,0 КГц
Битовая глубина : 16 бит
Метод сжатия : С потерями
Размер потока : 492 Мбайт (6%)
Заголовок : Rus
Язык : Russian
Аудио #2
Идентификатор : 3
Формат : AC-3
Формат/Информация : Audio Coding 3
Расширение режима : CM (complete main)
Идентификатор кодека : A_AC3
Продолжительность : 2 ч. 33 м.
Вид битрейта : Постоянный
Битрейт : 640 Кбит/сек
Каналы : 6 каналов
Расположение каналов : Front: L C R, Side: L R, LFE
Частота : 48,0 КГц
Битовая глубина : 16 бит
Метод сжатия : С потерями
Размер потока : 703 Мбайт (9%)
Заголовок : Eng
Язык : English
Текст #1
Идентификатор : 4
Формат : UTF-8
Идентификатор кодека : S_TEXT/UTF8
Идентификатор кодека/Информация : UTF-8 Plain Text
Заголовок : Rus forced
Язык : Russian
Текст #2
Идентификатор : 5
Формат : UTF-8
Идентификатор кодека : S_TEXT/UTF8
Идентификатор кодека/Информация : UTF-8 Plain Text
Заголовок : Rus
Язык : Russian
Текст #3
Идентификатор : 6
Формат : UTF-8
Идентификатор кодека : S_TEXT/UTF8
Идентификатор кодека/Информация : UTF-8 Plain Text
Заголовок : Eng
Язык : English
Меню
00:00:00.000 : :Chapter 01
00:05:28.494 : :Chapter 02
00:12:13.941 : :Chapter 03
00:14:57.146 : :Chapter 04
00:18:43.205 : :Chapter 05
00:22:30.515 : :Chapter 06
00:27:36.029 : :Chapter 07
00:32:04.631 : :Chapter 08
00:37:48.224 : :Chapter 09
00:44:48.352 : :Chapter 10
00:49:31.760 : :Chapter 11
00:54:55.375 : :Chapter 12
01:00:00.305 : :Chapter 13
01:03:09.660 : :Chapter 14
01:05:57.161 : :Chapter 15
01:09:13.691 : :Chapter 16
01:14:00.102 : :Chapter 17
01:21:09.781 : :Chapter 18
01:26:31.477 : :Chapter 19
01:33:37.403 : :Chapter 20
01:39:57.324 : :Chapter 21
01:43:16.273 : :Chapter 22
01:48:24.748 : :Chapter 23
01:52:30.118 : :Chapter 24
01:56:53.673 : :Chapter 25
02:02:11.741 : :Chapter 26
02:08:33.539 : :Chapter 27
02:15:00.300 : :Chapter 28
02:19:08.048 : :Chapter 29
02:23:54.125 : :Chapter 30
02:33:30.659 : :Chapter 31
Гарри Поттер и дары смерти: Часть 1 / Harry Potter and the Deathly Hallows: Part 1 (2010)
Информация о фильме
Название: Гарри Поттер и дары смерти: Часть 1
Оригинальное название: Harry Potter and the Deathly Hallows: Part 1
Год выхода: 2010
Жанр: фэнтези, драма, детектив, приключения
Режиссер: Дэвид Йэтс
В ролях: Дэниэл Рэдклифф, Руперт Гринт, Эмма Уотсон, Том Фелтон, Бонни Райт, Алан Рикман, Рэйф Файнс, Хелена Бонем Картер, Майкл Гэмбон, Брендан Глисон
О фильме: Гарри Поттера ждёт самое страшное испытание в жизни — смертельная схватка с Волан-де-Мортом. Ждать помощи не от кого — Гарри одинок, как никогда… Друзья и враги Гарри предстают в совершенно неожиданном свете. Граница между Добром и Злом становится всё призрачнее…

Выпущено: Warner Bros. Pictures
Продолжительность: 02:26:05
Перевод: Дублированный
Файл
Кодек: x264
Качество: BDRip (источник: Blu-ray Disc)
Видео: 1920x800 (2,40:1), 23.976 fps, 6327 kbps
Аудио #1: AC-3, 6 ch, 640 kbps (Rus)
Аудио #2: AC-3, 6 ch, 640 kbps (Eng)
Субтитры: Русские, Английские
Скриншоты
MI
Общее
Уникальный идентификатор : 247743896854542831584840993208523930334 (0xBA61BD2BC53ED87C9FBFBEA06015BADE)
Полное имя : Harry.Potter.and.the.Deathly.Hallows.Part.1.2010.BDRip.1080p.Rus.Eng.mkv
Формат : Matroska
Версия формата : Version 2
Размер файла : 7,76 Гбайт
Продолжительность : 2 ч. 26 м.
Общий поток : 7609 Кбит/сек
Название фильма : Гарри Поттер и Дары смерти: Часть 1 / Harry Potter and the Deathly Hallows: Part 1 (2010)
Дата кодирования : UTC 2012-07-31 13:11:27
Программа кодирования : mkvmerge v5.7.0 ('The Whirlwind') built on Jul 8 2012 20:08:51
Библиотека кодирования : libebml v1.2.3 + libmatroska v1.3.0
Видео
Идентификатор : 1
Формат : AVC
Формат/Информация : Advanced Video Codec
Профиль формата : High@L4.1
Параметр CABAC формата : Да
Параметр ReFrames формата : 5 кадров
Идентификатор кодека : V_MPEG4/ISO/AVC
Продолжительность : 2 ч. 26 м.
Битрейт : 6327 Кбит/сек
Ширина : 1920 пикселей
Высота : 800 пикселей
Соотношение сторон : 2,40:1
Частота кадров : 23,976 кадра/сек
Цветовое пространство : YUV
Субдискретизация насыщенности : 4:2:0
Битовая глубина : 8 бит
Тип развёртки : Прогрессивная
Бит/(Пиксели*Кадры) : 0.172
Размер потока : 6,30 Гбайт (81%)
Заголовок : Release by AlexKa
Библиотека кодирования : x264 core 125 r2208 d9d2288
Настройки программы : cabac=1 / ref=5 / deblock=1:-3:-3 / analyse=0x3:0x133 / me=umh / subme=10 / psy=1 / psy_rd=1.00:0.10 / mixed_ref=1 / me_range=32 / chroma_me=1 / trellis=2 / 8x8dct=1 / cqm=0 / deadzone=21,11 / fast_pskip=0 / chroma_qp_offset=-3 / threads=12 / lookahead_threads=2 / sliced_threads=0 / nr=0 / decimate=0 / interlaced=0 / bluray_compat=0 / constrained_intra=0 / bframes=5 / b_pyramid=2 / b_adapt=2 / b_bias=0 / direct=3 / weightb=1 / open_gop=0 / weightp=2 / keyint=240 / keyint_min=23 / scenecut=40 / intra_refresh=0 / rc=2pass / mbtree=0 / bitrate=6327 / ratetol=1.0 / qcomp=0.60 / qpmin=0 / qpmax=69 / qpstep=4 / cplxblur=20.0 / qblur=0.5 / ip_ratio=1.40 / pb_ratio=1.30 / aq=1:0.80
Язык : English
Аудио #1
Идентификатор : 2
Формат : AC-3
Формат/Информация : Audio Coding 3
Расширение режима : CM (complete main)
Идентификатор кодека : A_AC3
Продолжительность : 2 ч. 26 м.
Вид битрейта : Постоянный
Битрейт : 640 Кбит/сек
Каналы : 6 каналов
Расположение каналов : Front: L C R, Side: L R, LFE
Частота : 48,0 КГц
Битовая глубина : 16 бит
Метод сжатия : С потерями
Размер потока : 669 Мбайт (8%)
Заголовок : Rus
Язык : Russian
Аудио #2
Идентификатор : 3
Формат : AC-3
Формат/Информация : Audio Coding 3
Расширение режима : CM (complete main)
Идентификатор кодека : A_AC3
Продолжительность : 2 ч. 26 м.
Вид битрейта : Постоянный
Битрейт : 640 Кбит/сек
Каналы : 6 каналов
Расположение каналов : Front: L C R, Side: L R, LFE
Частота : 48,0 КГц
Битовая глубина : 16 бит
Метод сжатия : С потерями
Размер потока : 669 Мбайт (8%)
Заголовок : Eng
Язык : English
Текст #1
Идентификатор : 4
Формат : UTF-8
Идентификатор кодека : S_TEXT/UTF8
Идентификатор кодека/Информация : UTF-8 Plain Text
Заголовок : Rus
Язык : Russian
Текст #2
Идентификатор : 5
Формат : UTF-8
Идентификатор кодека : S_TEXT/UTF8
Идентификатор кодека/Информация : UTF-8 Plain Text
Заголовок : Eng
Язык : English
Меню
00:00:00.000 : :Chapter 01
00:04:18.508 : :Chapter 02
00:09:46.627 : :Chapter 03
00:15:16.206 : :Chapter 04
00:19:13.569 : :Chapter 05
00:26:04.229 : :Chapter 06
00:31:37.770 : :Chapter 07
00:35:43.307 : :Chapter 08
00:41:37.536 : :Chapter 09
00:45:45.617 : :Chapter 10
00:50:14.094 : :Chapter 11
00:55:02.715 : :Chapter 12
00:58:31.174 : :Chapter 13
01:03:41.358 : :Chapter 14
01:10:02.197 : :Chapter 15
01:14:30.924 : :Chapter 16
01:18:48.848 : :Chapter 17
01:22:17.598 : :Chapter 18
01:24:55.089 : :Chapter 19
01:28:03.194 : :Chapter 20
01:32:34.173 : :Chapter 21
01:37:40.228 : :Chapter 22
01:42:37.567 : :Chapter 23
01:47:54.133 : :Chapter 24
01:53:48.112 : :Chapter 25
01:57:30.960 : :Chapter 26
02:01:27.988 : :Chapter 27
02:05:42.159 : :Chapter 28
02:09:42.732 : :Chapter 29
02:13:16.029 : :Chapter 30
02:14:47.120 : :Chapter 31
02:26:05.005 : :Chapter 32
Гарри Поттер и дары смерти: Часть 2 / Harry Potter and the Deathly Hallows: Part 2 (2011)
Информация о фильме
Название: Гарри Поттер и дары смерти: Часть 2
Оригинальное название: Harry Potter and the Deathly Hallows: Part 2
Год выхода: 2011
Жанр: фэнтези, драма, детектив, приключения
Режиссер: Дэвид Йэтс
В ролях: Дэниэл Рэдклифф, Руперт Гринт, Эмма Уотсон, Рэйф Файнс, Алан Рикман, Хелена Бонем Картер, Том Фелтон, Гари Олдман, Майкл Гэмбон, Мэгги Смит
О фильме: В грандиозной последней главе битва между добрыми и злыми силами мира волшебников перерастает во всеобщую войну. Ставки ещё никогда не были так высоки, а поиск убежища — столь сложен. И быть может именно Гарри Поттеру придется пожертвовать всем в финальном сражении с Волан-де-Мортом. Способен ли наш герой спасти мир? И всё закончится здесь.

Выпущено: Warner Bros. Pictures
Продолжительность: 02:10:27
Перевод: Дублированный
Файл
Кодек: x264
Качество: BDRip (источник: Blu-ray Disc)
Видео: 1920x800 (2,40:1), 23.976 fps, 7238 kbps
Аудио #1: AC-3, 6 ch, 640 kbps (Rus)
Аудио #2: AC-3, 6 ch, 640 kbps (Eng)
Субтитры: Русские (форс,полные), Английские
Скриншоты
MI
Общее
Уникальный идентификатор : 234013217046042163381949526114567445407 (0xB00D4E63B8D1C631B97A4CF5A573DB9F)
Полное имя : Harry.Potter.and.the.Deathly.Hallows.Part.2.2011.BDRip.1080p.Rus.Eng.mkv
Формат : Matroska
Версия формата : Version 2
Размер файла : 7,76 Гбайт
Продолжительность : 2 ч. 10 м.
Общий поток : 8519 Кбит/сек
Название фильма : Гарри Поттер и Дары смерти: Часть 2 / Harry Potter and the Deathly Hallows: Part 2 (2011)
Дата кодирования : UTC 2012-07-31 13:15:47
Программа кодирования : mkvmerge v5.7.0 ('The Whirlwind') built on Jul 8 2012 20:08:51
Библиотека кодирования : libebml v1.2.3 + libmatroska v1.3.0
Видео
Идентификатор : 1
Формат : AVC
Формат/Информация : Advanced Video Codec
Профиль формата : High@L4.1
Параметр CABAC формата : Да
Параметр ReFrames формата : 5 кадров
Идентификатор кодека : V_MPEG4/ISO/AVC
Продолжительность : 2 ч. 10 м.
Битрейт : 7238 Кбит/сек
Ширина : 1920 пикселей
Высота : 800 пикселей
Соотношение сторон : 2,40:1
Частота кадров : 23,976 кадра/сек
Цветовое пространство : YUV
Субдискретизация насыщенности : 4:2:0
Битовая глубина : 8 бит
Тип развёртки : Прогрессивная
Бит/(Пиксели*Кадры) : 0.197
Размер потока : 6,44 Гбайт (83%)
Заголовок : Release by AlexKa
Библиотека кодирования : x264 core 125 r2208 d9d2288
Настройки программы : cabac=1 / ref=5 / deblock=1:-3:-3 / analyse=0x3:0x133 / me=umh / subme=10 / psy=1 / psy_rd=1.00:0.10 / mixed_ref=1 / me_range=32 / chroma_me=1 / trellis=2 / 8x8dct=1 / cqm=0 / deadzone=21,11 / fast_pskip=0 / chroma_qp_offset=-3 / threads=12 / lookahead_threads=2 / sliced_threads=0 / nr=0 / decimate=0 / interlaced=0 / bluray_compat=0 / constrained_intra=0 / bframes=5 / b_pyramid=2 / b_adapt=2 / b_bias=0 / direct=3 / weightb=1 / open_gop=0 / weightp=2 / keyint=240 / keyint_min=23 / scenecut=40 / intra_refresh=0 / rc=2pass / mbtree=0 / bitrate=7238 / ratetol=1.0 / qcomp=0.60 / qpmin=0 / qpmax=69 / qpstep=4 / cplxblur=20.0 / qblur=0.5 / ip_ratio=1.40 / pb_ratio=1.30 / aq=1:0.80
Язык : English
Аудио #1
Идентификатор : 2
Формат : AC-3
Формат/Информация : Audio Coding 3
Расширение режима : CM (complete main)
Идентификатор кодека : A_AC3
Продолжительность : 2 ч. 10 м.
Вид битрейта : Постоянный
Битрейт : 640 Кбит/сек
Каналы : 6 каналов
Расположение каналов : Front: L C R, Side: L R, LFE
Частота : 48,0 КГц
Битовая глубина : 16 бит
Метод сжатия : С потерями
Размер потока : 597 Мбайт (8%)
Заголовок : Rus
Язык : Russian
Аудио #2
Идентификатор : 3
Формат : AC-3
Формат/Информация : Audio Coding 3
Расширение режима : CM (complete main)
Идентификатор кодека : A_AC3
Продолжительность : 2 ч. 10 м.
Вид битрейта : Постоянный
Битрейт : 640 Кбит/сек
Каналы : 6 каналов
Расположение каналов : Front: L C R, Side: L R, LFE
Частота : 48,0 КГц
Битовая глубина : 16 бит
Метод сжатия : С потерями
Размер потока : 597 Мбайт (8%)
Заголовок : Eng
Язык : English
Текст #1
Идентификатор : 4
Формат : UTF-8
Идентификатор кодека : S_TEXT/UTF8
Идентификатор кодека/Информация : UTF-8 Plain Text
Заголовок : Rus forced
Язык : Russian
Текст #2
Идентификатор : 5
Формат : UTF-8
Идентификатор кодека : S_TEXT/UTF8
Идентификатор кодека/Информация : UTF-8 Plain Text
Заголовок : Rus
Язык : Russian
Текст #3
Идентификатор : 6
Формат : UTF-8
Идентификатор кодека : S_TEXT/UTF8
Идентификатор кодека/Информация : UTF-8 Plain Text
Заголовок : Eng
Язык : English
Меню
00:00:00.000 : :Chapter 01
00:02:58.219 : :Chapter 02
00:06:21.172 : :Chapter 03
00:10:21.871 : :Chapter 04
00:14:27.992 : :Chapter 05
00:20:05.621 : :Chapter 06
00:22:47.783 : :Chapter 07
00:25:38.620 : :Chapter 08
00:30:46.803 : :Chapter 09
00:34:33.654 : :Chapter 10
00:40:32.263 : :Chapter 11
00:45:52.249 : :Chapter 12
00:50:15.470 : :Chapter 13
00:54:41.027 : :Chapter 14
00:59:01.245 : :Chapter 15
01:03:42.067 : :Chapter 16
01:07:06.063 : :Chapter 17
01:11:24.488 : :Chapter 18
01:14:38.932 : :Chapter 19
01:23:40.848 : :Chapter 20
01:29:17.727 : :Chapter 21
01:31:25.020 : :Chapter 22
01:36:37.666 : :Chapter 23
01:41:09.104 : :Chapter 24
01:46:42.312 : :Chapter 25
01:50:18.361 : :Chapter 26
01:54:16.682 : :Chapter 27
01:58:12.876 : :Chapter 28
02:10:26.609 : :Chapter 29
x264
1
x264 [info]: frame I:1879 Avg QP:18.23 size:141425
x264 [info]: frame P:48818 Avg QP:20.66 size: 59914
x264 [info]: frame B:168484 Avg QP:22.95 size: 23153
2
x264 [info]: frame I:2096 Avg QP:16.17 size:131351
x264 [info]: frame P:52919 Avg QP:18.69 size: 53756
x264 [info]: frame B:176502 Avg QP:21.15 size: 20791
3
x264 [info]: frame I:1680 Avg QP:17.00 size:184362
x264 [info]: frame P:48899 Avg QP:19.79 size: 63657
x264 [info]: frame B:153269 Avg QP:22.09 size: 23170
4
x264 [info]: frame I:1668 Avg QP:14.96 size:137939
x264 [info]: frame P:52324 Avg QP:17.55 size: 61103
x264 [info]: frame B:171994 Avg QP:20.16 size: 22380
5
x264 [info]: frame I:1815 Avg QP:15.29 size:191393
x264 [info]: frame P:43692 Avg QP:17.98 size: 68863
x264 [info]: frame B:153361 Avg QP:20.28 size: 23796
6
x264 [info]: frame I:1676 Avg QP:14.09 size:156189
x264 [info]: frame P:46359 Avg QP:16.97 size: 63764
x264 [info]: frame B:172806 Avg QP:19.37 size: 22355
7
x264 [info]: frame I:1507 Avg QP:14.42 size:191774
x264 [info]: frame P:50861 Avg QP:16.93 size: 69176
x264 [info]: frame B:157788 Avg QP:19.60 size: 19805
8
x264 [info]: frame I:1349 Avg QP:15.26 size:196680
x264 [info]: frame P:44486 Avg QP:18.20 size: 73704
x264 [info]: frame B:141822 Avg QP:20.46 size: 24934
[Профиль] [ЛС]
Показать сообщения:    
Ответить на тему

Текущее время: 20-Авг 11:00

Часовой пояс: UTC + 3



Вы не можете начинать темы
Вы не можете отвечать на сообщения
Вы не можете редактировать свои сообщения
Вы не можете удалять свои сообщения
Вы не можете голосовать в опросах
Вы не можете прикреплять файлы к сообщениям
Вы не можете скачивать файлы