Волшебная лампа Аладдина (Борис Рыцарев) [1966, сказка, DVDRip]

Ответить на тему
 
Автор Сообщение

Bot ®

Стаж: 2 года 5 месяцев

Сообщений: 2

Создавать темы 07-Янв-2017 18:02

[Цитировать]

Волшебная лампа Аладдина
Год выпуска: 1967
Жанр: сказка
Продолжительность: 01:18:43
Режиссер: Борис Рыцарев
В ролях: Борис Быстров, Додо Чоговадзе, Сарры Каррыев (озвучание - Константин Николаев), Андрей Файт, Отар Коберидзе, Екатерина Верулеишвили, Гусейнага Садыхов, Георгий Милляр, Отар Биланишвили, Валентин Брылеев, Юрий Чекулаев, Яков Беленький, Надежда Семенцова, Михаил Щербаков, Владимир Маслацов, Эммануил Геллер, Николай Горлов, Семен Сафонов, Борис Светлов
Описание: Экранизация одноименной арабской сказки из цикла "Тысяча и одна ночь".
Герой сказки - юный Аладдин, обладатель чудесной лампы, которая помогает ему бороться со злом и делать добрых счастливыми.
Отзыв зрителя.
Одна из лучших экранизаций восточных сказок, если не самая лучшая из тех, что я видел. Прекрасно передан вогсточный колорит, в то же время тонкий юмор. И гениальные актёрские работы. Особенно хочется выделить Андрея Файта (Магрибинец) и Сарры Каррыева (Джинн).
Доп. информация: Реставрация изображения и звука RUSCICO.
DVD9 «Волшебная лампа Аладдина»
Релиз ®
Качество видео: DVDRip
Формат видео: AVI
Видео: 720x304 (2.37:1), 25 fps, DivX Codec 5.x or 6.x ~1787 kbps avg
Аудио: 48 kHz, MPEG Layer 3, 2 ch, ~192.00 kbps avg
MI
Полное имя : F:\Lampa_Aladdina.avi
Формат : AVI
Формат/Информация : Audio Video Interleave
Размер файла : 1,09 Гбайт
Продолжительность : 1 ч. 18 м.
Общий поток : 1989 Кбит/сек
Программа кодирования : VirtualDubModRus 1.5.10.2 (build 2542/release)
Библиотека кодирования : VirtualDubMod build 2542/release
Видео
Идентификатор : 0
Формат : MPEG-4 Visual
Параметр BVOP формата : 1
Параметр QPel формата : Нет
Параметр GMC формата : Без точки перехода
Параметр матрицы формата : Default (H.263)
Режим смешивания : Сжатый битовый поток
Идентификатор кодека : DX50
Идентификатор кодека/Подсказка : DivX 5
Продолжительность : 1 ч. 18 м.
Битрейт : 1788 Кбит/сек
Ширина : 720 пикселей
Высота : 304 пикселя
Соотношение сторон : 2,35:1
Частота кадров : 25,000 кадров/сек
Цветовое пространство : YUV
Субдискретизация насыщенности : 4:2:0
Битовая глубина : 8 бит
Тип развёртки : Прогрессивная
Метод сжатия : С потерями
Бит/(Пиксели*Кадры) : 0.327
Размер потока : 1007 Мбайт (90%)
Библиотека кодирования : DivX 6.8.3-6.8.4 (UTC 2008-06-07)
Аудио
Идентификатор : 1
Формат : MPEG Audio
Версия формата : Version 1
Профиль формата : Layer 3
Идентификатор кодека : 55
Идентификатор кодека/Подсказка : MP3
Продолжительность : 1 ч. 18 м.
Вид битрейта : Постоянный
Битрейт : 192 Кбит/сек
Каналы : 2 канала
Частота : 48,0 КГц
Метод сжатия : С потерями
Размер потока : 108 Мбайт (10%)
Выравнивание : Соединение по промежуткам
Продолжительность промежутка : 40 мс. (1,00 видеокадр)
Время предзагрузки промежутка : 504 мс.
Библиотека кодирования : LAME3.97
Настройки программы : -m s -V 4 -q 2 -b 192
Скриншоты
[Профиль] [ЛС]
Показать сообщения:    
Ответить на тему

Текущее время: 24-Сен 16:57

Часовой пояс: UTC + 3



Вы не можете начинать темы
Вы не можете отвечать на сообщения
Вы не можете редактировать свои сообщения
Вы не можете удалять свои сообщения
Вы не можете голосовать в опросах
Вы не можете прикреплять файлы к сообщениям
Вы не можете скачивать файлы