Сегодня идет свободное скачивание без начисления Download

S.P.L. Звезды судьбы 2 / Saat po long 2 (Поу-Сои Чинг / Pou-Soi Cheang) [2015, Китай, Гонконг, боевик, драма, криминал, BDRemux 1080p] DVO + Original (Chi) + Sub (Eng)

Ответить на тему
 
Автор Сообщение

Bot ®

Стаж: 2 года 7 месяцев

Сообщений: 2435

Создавать темы 08-Янв-2017 12:48

[Цитировать]

S.P.L. Звезды судьбы 2 / Saat po long 2
--Страна: Китай, Гонконг
Студия: 1618 Action Limited, Abba Movies Co. Ltd, Bona Film Group
Жанр: боевик, драма, криминал
Год выпуска: 2015
Продолжительность: 01:59:58--Перевод: Любительский (двухголосый закадровый) den904 & DeadSno по переводу Сергея Скворцова
Cубтитры: английские
Оригинальная аудиодорожка: китайский--Режиссер: Поу-Сои Чинг / Pou-Soi Cheang
В ролях: Тони Джа, Энди Он, Ву Джин, Саймон Ям, Луис Ку, Кики Енг, Кен Ло, Френсис Нг, Эндрю Ын, Чжан Джин--Описание: Крутой гонконгский полицейский Кит загоняет в угол крупного гангстера, но тот поворачивает все в свою сторону — главный свидетель Кита исчез. Более того, Кита отправляют в тайскую тюрьму, снабдив фальшивым списком преступлений. Тюремный охранник Чай следит за тем, чтобы Кит не сбежал — дочь Чая страдает от редкой формы лейкемии, и только Кит может стать для нее подходящим донором.--imdb | kinopoisk | Сэмпл--Тип релиза: BDRemux 1080p [SPL.2.A.Time.for.Consequences.2015.BluRay.1080p.AVC.DTS-HD.MA7.1-HDChina]
Контейнер: MKV
Видео: MPEG-4 AVC / 33797 kbps / 1920x1080 / 24 fps / 16:9 / High Profile 4.1
Аудио 1: Russian AC3 / 2.0 / 48 kHz / 192 kbps / 16 bits |den904 & DeadSno|
Аудио 2: Chinese DTS-HD Master Audio / 7.1 / 48 kHz / 2284 kbps / 16-bit (DTS Core: 5.1 / 48 kHz / 1509 kbps / 16 bits) |original|
Формат субтитров: softsub [SRT]
MediaInfo
Код:
Общее
Уникальный идентификатор                 : 225435720747640121351646818486721615898 (0xA999572BCF663EE085AFBE82CAEE981A)
Полное имя                               : G:\HD\Звезды судьбы 2.2015.Blu-Ray.Remux.(1080p).mkv
Формат                                   : Matroska
Версия формата                           : Version 4 / Version 2
Размер файла                             : 30,4 Гбайт
Продолжительность                        : 1 ч. 59 м.
Режим общего битрейта                    : Переменный
Общий поток                              : 36,3 Мбит/сек
Дата кодирования                         : UTC 2017-01-07 20:15:31
Программа кодирования                    : mkvmerge v9.7.1 ('Pandemonium') 64bit
Библиотека кодирования                   : libebml v1.3.4 + libmatroska v1.4.5
Attachments                              : poster.jpg
Видео
Идентификатор                            : 1
Формат                                   : AVC
Формат/Информация                        : Advanced Video Codec
Профиль формата                          : High@L4.1
Параметр CABAC формата                   : Да
Параметр ReFrames формата                : 4 кадра
Параметр GOP формата                     : M=3, N=24
Идентификатор кодека                     : V_MPEG4/ISO/AVC
Продолжительность                        : 1 ч. 59 м.
Вид битрейта                             : Переменный
Битрейт                                  : 33,8 Мбит/сек
Максимальный битрейт                     : 38,0 Мбит/сек
Ширина                                   : 1920 пикселей
Высота                                   : 1080 пикселей
Соотношение сторон                       : 16:9
Режим частоты кадров                     : Постоянный
Частота кадров                           : 24,000 кадра/сек
Стандарт вещания                         : NTSC
Цветовое пространство                    : YUV
Субдискретизация насыщенности            : 4:2:0
Битовая глубина                          : 8 бит
Тип развёртки                            : Прогрессивная
Бит/(Пиксели*Кадры)                      : 0.679
Размер потока                            : 28,3 Гбайт (93%)
Default                                  : Да
Forced                                   : Нет
Цветовой диапазон                        : Limited
Основные цвета                           : BT.709
Характеристики трансфера                 : BT.709
Коэффициенты матрицы                     : BT.709
Аудио #1
Идентификатор                            : 2
Формат                                   : AC-3
Формат/Информация                        : Audio Coding 3
Расширение режима                        : CM (complete main)
Параметр Endianness формата              : Big
Идентификатор кодека                     : A_AC3
Продолжительность                        : 1 ч. 59 м.
Вид битрейта                             : Постоянный
Битрейт                                  : 192 Кбит/сек
Каналы                                   : 2 канала
Расположение каналов                     : Front: L R
Частота                                  : 48,0 КГц
Частота кадров                           : 31,250 кадров/сек (1536 spf)
Битовая глубина                          : 16 бит
Метод сжатия                             : С потерями
Размер потока                            : 165 Мбайт (1%)
Заголовок                                : den904 & DeadSno
Язык                                     : Russian
Default                                  : Да
Forced                                   : Нет
Аудио #2
Идентификатор                            : 3
Формат                                   : DTS
Формат/Информация                        : Digital Theater Systems
Профиль формата                          : MA / Core
Режим                                    : 16
Параметр Endianness формата              : Big
Идентификатор кодека                     : A_DTS
Продолжительность                        : 1 ч. 59 м.
Вид битрейта                             : Переменный / Постоянный
Битрейт                                  : 2284 Кбит/сек / 1509 Кбит/сек
Каналы                                   : 8 каналов / 6 каналов
Расположение каналов                     : Front: L C R, Side: L R, Back: L R, LFE / Front: L C R, Side: L R, LFE
Частота                                  : 48,0 КГц
Частота кадров                           : 93,750 кадра/сек (512 spf)
Битовая глубина                          : 16 бит
Метод сжатия                             : Без потерь / Lossy
Размер потока                            : 1,91 Гбайт (6%)
Язык                                     : Chinese
Default                                  : Нет
Forced                                   : Нет
Текст
Идентификатор                            : 4
Формат                                   : UTF-8
Идентификатор кодека                     : S_TEXT/UTF8
Идентификатор кодека/Информация          : UTF-8 Plain Text
Продолжительность                        : 1 ч. 53 м.
Битрейт                                  : 24 бит/сек
Count of elements                        : 907
Размер потока                            : 20,6 Кбайт (0%)
Язык                                     : English
Default                                  : Нет
Forced                                   : Нет
Меню
00:00:00.000                             : :Chapter 01
00:09:03.291                             : :Chapter 02
00:18:04.875                             : :Chapter 03
00:27:52.625                             : :Chapter 04
00:38:01.125                             : :Chapter 05
00:48:26.958                             : :Chapter 06
00:58:12.500                             : :Chapter 07
01:07:25.833                             : :Chapter 08
01:16:22.583                             : :Chapter 09
01:25:34.375                             : :Chapter 10
01:35:54.375                             : :Chapter 11
01:43:32.000                             : :Chapter 12
Скриншоты
[Профиль] [ЛС]
Показать сообщения:    
Ответить на тему

Текущее время: 19-Янв 13:47

Часовой пояс: UTC + 3



Вы не можете начинать темы
Вы не можете отвечать на сообщения
Вы не можете редактировать свои сообщения
Вы не можете удалять свои сообщения
Вы не можете голосовать в опросах
Вы не можете прикреплять файлы к сообщениям
Вы не можете скачивать файлы