Сегодня идет свободное скачивание без начисления Download

За нами Москва (1967) VHSRip

Ответить на тему
 
Автор Сообщение

Bot ®

Стаж: 2 года 1 месяц

Сообщений: 3

Создавать темы 10-Янв-2017 14:03

[Цитировать]

За нами Москва (1967) VHSRip- Год выпуска: 1967
Жанр: Военный, исторический, биографический
Выпущено: СССР, Казахфильм
Описание:
Героическая киноповесть. По мотивам книг и материалов писателя-панфиловца Бауыржана Момыш-улы. В основе сценария - повесть А. Бека "Волоколамское шоссе". Фильм посвящен легендарной Панфиловской дивизии, которая сражалась на волоколамском направлении под Москвой в 1941 году, остановила фашистов и перешла в контрнаступление... Бауыржан Момыш-улы участвовал в боях с сентября 1941 года был в составе легендарной дивизии под командованием генерал-майора И.Панфилова. Во время второго генерального наступления вермахта на Москву с 16 по 18 ноября 1941 года батальон под руководством Б.Момыш-улы в отрыве от дивизии героически сражался на Волоколамском шоссе у деревни Матронино под Москвой. Умелое руководство комбата позволило на три дня задержать фашистов на данном рубеже. После чего старший лейтенант Б.Момыш-улы вывел батальон из окружения боеспособным. Героический боевой путь батальона под командованием Б.Момыш-Улы описан в художественно-исторической книге Александра Бека «Волоколамское шоссе». За проявленные мужество и героизм в битве под Москвой в 1942 году Б.Момышулы был представлен к званию Героя Советского Союза, но оно было присвоено ему лишь 11 декабря 1990 года посмертно...
Режиссер: Мажит Бегалин
Актеры: Асанбек Умуралиев, Владлен Давыдов, Олег Мокшанцев, Иван Савкин, Всеволод Санаев, Куатбай Абдреимов, Борис Быстров, Людмила Иванова, Анатолий Голик, Вадим Захарченко, Нуржуман Ихтымбаев, Каукен Кенжетаев, Виктор Уральский, Анатолий Чемодуров, Сергей Юртайкин, Руслан Ахметов, Вячеслав Подвиг, Михаил Селютин, Гурген Тонунц
Продолжительность: 01:23:37

Видеокодек: Xvid
Битрейт видео: ~1100 kb/s
Размер кадра: 688 x 256
Качество видео: VHSRip
Аудиокодек: MP3, 2 ch
Битрейт аудио: 128 kb/s
Награды:
Главный приз и диплом I ст. на VII смотре-соревновании кинематографистов Средней Азии и Казахстана во Фрунзе-68,
премия за лучшее исполнение мужской роли актеру А.Умуралиеву.
MediaInfo
Общее
Полное имя : За нами Москва.1967.XviD.VHSRip.[nnmclub.to].avi
Формат : AVI
Формат/Информация : Audio Video Interleave
Размер файла : 704 Мбайт
Продолжительность : 1 ч. 23 м.
Общий поток : 1177 Кбит/сек
Программа кодирования : VirtualDubMod 1.5.10.2 (build 2540/release)
Библиотека кодирования : VirtualDub build 29808/release
Видео
Идентификатор : 0
Формат : MPEG-4 Visual
Профиль формата : Advanced Simple@L5
Параметр BVOP формата : 2
Параметр QPel формата : Нет
Параметр GMC формата : Без точки перехода
Параметр матрицы формата : Default (H.263)
Идентификатор кодека : XVID
Идентификатор кодека/Подсказка : XviD
Продолжительность : 1 ч. 23 м.
Битрейт : 1039 Кбит/сек
Ширина : 688 пикселей
Высота : 256 пикселей
Соотношение сторон : 2,688
Частота кадров : 25,000 кадров/сек
Цветовое пространство : YUV
Субдискретизация насыщенности : 4:2:0
Битовая глубина : 8 бит
Тип развёртки : Прогрессивная
Метод сжатия : С потерями
Бит/(Пиксели*Кадры) : 0.236
Размер потока : 622 Мбайт (88%)
Библиотека кодирования : XviD 1.2.1 (UTC 2008-12-04)
Аудио
Идентификатор : 1
Формат : MPEG Audio
Версия формата : Version 1
Профиль формата : Layer 3
Режим : Joint stereo
Расширение режима : MS Stereo
Идентификатор кодека : 55
Идентификатор кодека/Подсказка : MP3
Продолжительность : 1 ч. 23 м.
Вид битрейта : Постоянный
Битрейт : 128 Кбит/сек
Каналы : 2 канала
Частота : 48,0 КГц
Метод сжатия : С потерями
Размер потока : 76,6 Мбайт (11%)
Выравнивание : Разделение по промежуткам
Продолжительность промежутка : 40 мс. (1,00 видеокадр)
Время предзагрузки промежутка : 500 мс.
Скриншоты: Время раздачи: С 13:00 до 21:00 (до 5 скачавших)
[Профиль] [ЛС]
Показать сообщения:    
Ответить на тему

Текущее время: 25-Июн 08:29

Часовой пояс: UTC + 3



Вы не можете начинать темы
Вы не можете отвечать на сообщения
Вы не можете редактировать свои сообщения
Вы не можете удалять свои сообщения
Вы не можете голосовать в опросах
Вы не можете прикреплять файлы к сообщениям
Вы не можете скачивать файлы