Сегодня идет свободное скачивание без начисления Download

901 километр (2011) WEBRip

Ответить на тему
 
Автор Сообщение

Bot ®

Стаж: 3 года 8 месяцев

Сообщений: 10

Создавать темы 11-Янв-2017 02:17

[Цитировать]

901 километр (2011) WEBRip- Русское название: 901 километр
Год выпуска: 2011
Производство: Россия
Жанр: Триллер
Перевод: Оригинал (русский)
Субтитры: Отсутствуют
Дата российской премьеры: 12 апреля 2012, «Kazak Film»
Режиссер: Борис Куломзин
Актеры: Александр Лебедев, Мария Прыскина, Александр Дроздов, Сергей Чиненов и др.
Описание фильма:
Школьники 10 «В» класса со своим преподавателем отправляются на экскурсию в г. Санкт-Петербург. На следующее утро они просыпаются в отцепленном вагоне посреди неизвестной местности. Купе проводника закрыто, связи нет, продуктов осталось совсем немного. Школьники пытаются найти выход из сложившейся ситуации и по одному уходят в поисках людей, или населенного пункта. Но никто из ушедших не возвращается назад… Что дальше?.. Непредсказуемая развязка. Неожиданный финал!

Продолжительность: 01:23:54
Качество видео: WEBRip
Видеокодек: Xvid
Битрейт видео: 2204 kb/s
Размер кадра: 720x304
Аудиокодек: MP3, 2 ch
Битрейт аудио: 128 kb/s-
MI
Код:
Общее
Полное имя                       : D:\НЕ УДАЛЯТЬ!!!\901.kilometr.2011.WEBRip.avi
Формат                           : AVI
Формат/Информация                : Audio Video Interleave
Размер файла                     : 1,37 Гбайт
Продолжительность                : 1 ч. 23 м.
Общий поток                      : 2342 Кбит/сек
Программа кодирования            : VirtualDubMod 1.5.10.2 (build 2542/release)
Библиотека кодирования           : VirtualDubMod build 2542/release
Видео
Идентификатор                    : 0
Формат                           : MPEG-4 Visual
Профиль формата                  : Advanced Simple@L5
Параметр BVOP формата            : 2
Параметр QPel формата            : Нет
Параметр GMC формата             : Без точки перехода
Параметр матрицы формата         : Default (MPEG)
Идентификатор кодека             : XVID
Идентификатор кодека/Подсказка   : XviD
Продолжительность                : 1 ч. 23 м.
Битрейт                          : 2204 Кбит/сек
Ширина                           : 720 пикселей
Высота                           : 304 пикселя
Соотношение сторон               : 2,35:1
Частота кадров                   : 25,000 кадров/сек
Цветовое пространство            : YUV
Субдискретизация насыщенности    : 4:2:0
Битовая глубина                  : 8 бит
Тип развёртки                    : Прогрессивная
Метод сжатия                     : С потерями
Бит/(Пиксели*Кадры)              : 0.403
Размер потока                    : 1,29 Гбайт (94%)
Библиотека кодирования           : XviD 1.2.1 (UTC 2008-12-04)
Аудио
Идентификатор                    : 1
Формат                           : MPEG Audio
Версия формата                   : Version 1
Профиль формата                  : Layer 3
Режим                            : Joint stereo
Расширение режима                : MS Stereo
Идентификатор кодека             : 55
Идентификатор кодека/Подсказка   : MP3
Продолжительность                : 1 ч. 23 м.
Вид битрейта                     : Постоянный
Битрейт                          : 128 Кбит/сек
Каналы                           : 2 канала
Частота                          : 44,1 КГц
Метод сжатия                     : С потерями
Размер потока                    : 76,8 Мбайт (5%)
Выравнивание                     : Разделение по промежуткам
Продолжительность промежутка     : 40  мс. (1,00 видеокадр)
Время предзагрузки промежутка    : 500  мс.
Библиотека кодирования           : LAME3.99r
Настройки программы              : -m j -V 4 -q 2 -lowpass 17 -b 128
--Скриншоты: -Приятного просмотра
и не забываем говорить СПАСИБО...
-Время раздачи: 24/7,
до 5 скачавших.
[Профиль] [ЛС]
Показать сообщения:    
Ответить на тему

Текущее время: 12-Дек 11:35

Часовой пояс: UTC + 3



Вы не можете начинать темы
Вы не можете отвечать на сообщения
Вы не можете редактировать свои сообщения
Вы не можете удалять свои сообщения
Вы не можете голосовать в опросах
Вы не можете прикреплять файлы к сообщениям
Вы не можете скачивать файлы