Кто я / Who Am I - Kein System ist sicher (2014) BDRip 1080p | Лицензия

Ответить на тему
 
Автор Сообщение

Bot ®

Стаж: 5 лет 2 месяца

Сообщений: 30791

Откуда: СССР

Создавать темы 11-Янв-2017 16:22

[Цитировать]

-
Анонсы 1080p от qqss44
--✘ Кто я ✘-- Информация о фильме
✦ Год выхода: 2014
✦ Название: Кто я
✦ Жанр: триллер
✦ Оригинальное название: Who Am I - Kein System ist sicher
✦ Режиссер: Баран бо Одар / Baran bo Odar
✦ В ролях: Том Шиллинг, Элиас ЭмБарек, Вотан Вильке Мёринг, Антуан Моно мл., Ханна Херцшпрунг, Штефан Кампвирт, Трине Дюрхольм, Леопольд Хорнунг, Катарина Матц, Леонхард Каров, Арндт Шверинг-Зонрей, Матиас Нюкирш

Описание фильма
Бенджамин - молодой компьютерный гений. С детства он мечтает стать супергероем из комиксов и покорить мир. Но в реальном мире он - Никто. Его жизнь неожиданно меняется, когда он встречает свою полную противоположность - харизматичного парня Макса.
Не желая жить в жестких рамках системы, они совершают череду дерзких кибер-преступлений. Восстав против равнодушного общества, они становятся кумирами для целого поколения.
Теперь Бенджамин не просто супергерой, он - самый разыскиваемый хакер в мире. Но что его ждет после погружения в альтернативную реальность? Кто же он на самом деле?...


✦ Выпущено: Германия
✦ Продолжительность: 01:41:47
✦ Перевод: дублированный -
|| Лицензия ||

Информация о файле
✦ Формат:| MKV | x264 |
✦ Качество: BDRip 1080p
✦ Видео: X264/MPEG4-AVC | 1920x804 (2.40:1) | ~7517 kbps | 23,976 fps
✦ Аудио Rus: AC3 | 48 KHz | 5.1 (Front: L С R Side: L R) + LFE | ~640 kbps
✘ MediaInfo ✘
x264 [info]: frame I:1524 Avg QP:14.71 size:199342
x264 [info]: frame P:37734 Avg QP:17.46 size: 65538
x264 [info]: frame B:113417 Avg QP:19.54 size: 26039
Общее
Уникальный идентификатор : 209352394380121405596349668980686704868 (0x9D7FCDF57447DA51A4E0F570B7BDD0E4)
Полное имя : X:ATorrentWho.Am.I.2014.BDRip.1080p.(qqss44).mkv
Формат : Matroska
Версия формата : Version 2
Размер файла : 5,79 Гбайт
Продолжительность : 1 ч. 41 м.
Общий поток : 8146 Кбит/сек
Название фильма : Who.Am.I.2014.BDRip.1080p.(qqss44)
Дата кодирования : UTC 2017-01-11 10:24:18
Программа кодирования : mkvmerge v7.9.0 ('Birds') 64bit
Библиотека кодирования : libebml v1.3.1 + libmatroska v1.4.2
Видео
Идентификатор : 1
Формат : AVC
Формат/Информация : Advanced Video Codec
Профиль формата : High@L4.1
Параметр CABAC формата : Да
Параметр ReFrames формата : 5 кадров
Идентификатор кодека : V_MPEG4/ISO/AVC
Продолжительность : 1 ч. 41 м.
Битрейт : 7517 Кбит/сек
Ширина : 1920 пикселей
Высота : 804 пикселя
Соотношение сторон : 2,40:1
Режим частоты кадров : Постоянный
Частота кадров : 25,000 кадров/сек
Цветовое пространство : YUV
Субдискретизация насыщенности : 4:2:0
Битовая глубина : 8 бит
Тип развёртки : Прогрессивная
Бит/(Пиксели*Кадры) : 0.195
Размер потока : 5,34 Гбайт (92%)
Заголовок : Who.Am.I.2014.BDRip.1080p.(qqss44)
Библиотека кодирования : x264 core 148 r2744kMod b97ae06
Настройки программы : cabac=1 / ref=5 / deblock=1:-3:-3 / analyse=0x3:0x133 / me=umh / subme=11 / psy=1 / fade_compensate=0.00 / psy_rd=1.00:0.00 / mixed_ref=1 / me_range=32 / chroma_me=1 / trellis=2 / 8x8dct=1 / cqm=0 / deadzone=21,11 / fast_pskip=0 / chroma_qp_offset=-2 / threads=12 / lookahead_threads=2 / sliced_threads=0 / nr=0 / decimate=0 / interlaced=0 / bluray_compat=0 / constrained_intra=0 / bframes=9 / b_pyramid=2 / b_adapt=2 / b_bias=0 / direct=3 / weightb=1 / open_gop=0 / weightp=2 / keyint=240 / keyint_min=24 / scenecut=40 / intra_refresh=0 / rc=2pass / mbtree=0 / bitrate=7517 / ratetol=1.0 / qcomp=0.70 / qpmin=0 / qpmax=69 / qpstep=4 / cplxblur=20.0 / qblur=0.5 / ip_ratio=1.40 / pb_ratio=1.30 / aq=3:0.80
Язык : English
Default : Да
Forced : Нет
Аудио
Идентификатор : 2
Формат : AC-3
Формат/Информация : Audio Coding 3
Расширение режима : CM (complete main)
Параметр Endianness формата : Big
Идентификатор кодека : A_AC3
Продолжительность : 1 ч. 41 м.
Вид битрейта : Постоянный
Битрейт : 640 Кбит/сек
Каналы : 6 каналов
Расположение каналов : Front: L C R, Side: L R, LFE
Частота : 48,0 КГц
Частота кадров : 31,250 кадров/сек (1536 spf)
Метод сжатия : С потерями
Размер потока : 466 Мбайт (8%)
Заголовок : DUB | DD5.1 @ 640 kbps
Язык : Russian
Default : Да
Forced : Нет
Меню
00:00:00.000 : en:00:00:00.000
00:04:27.079 : en:00:04:27.079
00:11:11.240 : en:00:11:11.240
00:18:06.319 : en:00:18:06.319
00:24:45.839 : en:00:24:45.839
00:29:37.960 : en:00:29:37.960
00:36:23.039 : en:00:36:23.039
00:41:53.920 : en:00:41:53.920
00:48:30.000 : en:00:48:30.000
00:55:18.920 : en:00:55:18.920
01:01:10.960 : en:01:01:10.960
01:06:13.920 : en:01:06:13.920
01:09:59.279 : en:01:09:59.279
01:17:00.159 : en:01:17:00.159
01:23:37.359 : en:01:23:37.359
01:37:55.439 : en:01:37:55.439
✘ Скриншоты ✘
[Профиль] [ЛС]
Показать сообщения:    
Ответить на тему

Текущее время: 26-Июл 21:36

Часовой пояс: UTC + 3



Вы не можете начинать темы
Вы не можете отвечать на сообщения
Вы не можете редактировать свои сообщения
Вы не можете удалять свои сообщения
Вы не можете голосовать в опросах
Вы не можете прикреплять файлы к сообщениям
Вы не можете скачивать файлы