Сегодня идет свободное скачивание без начисления Download

Как громом поражённый / Hit by Lightning (2014) BDRip 720р | L

Ответить на тему
 
Автор Сообщение

Bot ®

Стаж: 5 лет 1 месяц

Сообщений: 29791

Откуда: СССР

Создавать темы 11-Янв-2017 16:22

[Цитировать]

Название: Как громом поражённый
Оригинальное название: Hit by Lightning
Год выхода: 2014
Жанр: мелодрама, комедия, криминал
Режиссер: Рики Блитт
В ролях:
Стефани Зостак, Джон Крайер, Уилл Сассо, Джед Риис, Натали Тибо, Ричард Саттон, Шон Такер, Джулия А. Лонг, Алексис Мейтленд др.
Описание фильма:
История о Рикки Миллере — 40-летнем одиноком начинающем писателе, который работает менеджером. Внезапно, через сайт интернет-знакомств, он находит любовь своей жизни — красавицу Даниту. Рикки с головой погружается в отношения, но вскоре оказывается, что у Даниты есть муж, и она просит Рикки убить его…
Страна: Канада
Продолжительность: 01:28:52
Перевод: Любительский (многоголосый) NEON Studio
Субтитры: Отсутствуют
Реклама: Отсутствует

Файл
Формат: MKV
Качество: BDRip (720p)
Видео: MPEG-4 AVC, 5000 Кбит/с, 1280x720
Аудио: Русский (AC3, 2 ch, 192 Кбит/с)
MediaInfo
Формат : Matroska
Версия формата : Version 4 / Version 2
Размер файла : 3,19 Гбайт
Продолжительность : 1 ч. 28 м.
Общий поток : 5137 Кбит/сек
Название фильма : Hit.by.Lightning.2014.1080p.BluRay.H264.AAC-RARBG
Дата кодирования : UTC 2017-01-11 05:31:39
Программа кодирования : mkvmerge v9.7.1 ('Pandemonium') 64bit
Библиотека кодирования : libebml v1.3.4 + libmatroska v1.4.5
Видео
Идентификатор : 1
Формат : AVC
Формат/Информация : Advanced Video Codec
Профиль формата : Main@L3.1
Параметр CABAC формата : Нет
Параметр ReFrames формата : 2 кадра
Идентификатор кодека : V_MPEG4/ISO/AVC
Продолжительность : 1 ч. 28 м.
Битрейт : 5000 Кбит/сек
Ширина : 1280 пикселей
Высота : 720 пикселей
Соотношение сторон : 16:9
Режим частоты кадров : Постоянный
Частота кадров : 23,976 (23976/1000) кадра/сек
Цветовое пространство : YUV
Субдискретизация насыщенности : 4:2:0
Битовая глубина : 8 бит
Тип развёртки : Прогрессивная
Бит/(Пиксели*Кадры) : 0.226
Размер потока : 3,07 Гбайт (96%)
Библиотека кодирования : x264 core 77
Настройки программы : cabac=0 / ref=1 / deblock=1:0:0 / analyse=0x1:0x11 / me=hex / subme=5 / psy=1 / psy_rd=0.0:0.0 / mixed_ref=0 / me_range=16 / chroma_me=1 / trellis=0 / 8x8dct=0 / cqm=0 / deadzone=21,11 / chroma_qp_offset=0 / threads=2 / nr=0 / decimate=1 / mbaff=0 / constrained_intra=0 / bframes=2 / b_pyramid=0 / b_adapt=1 / b_bias=0 / direct=1 / wpredb=0 / keyint=12 / keyint_min=7 / scenecut=40 / rc_lookahead=12 / rc=abr / mbtree=1 / bitrate=5000 / ratetol=1.0 / qcomp=0.60 / qpmin=10 / qpmax=51 / qpstep=4 / ip_ratio=1.41 / aq=1:1.00
Default : Да
Forced : Нет
Аудио
Идентификатор : 2
Формат : AC-3
Формат/Информация : Audio Coding 3
Расширение режима : CM (complete main)
Параметр Endianness формата : Big
Идентификатор кодека : A_AC3
Продолжительность : 1 ч. 28 м.
Вид битрейта : Постоянный
Битрейт : 192 Кбит/сек
Каналы : 2 канала
Расположение каналов : Front: L R
Частота : 48,0 КГц
Частота кадров : 31,250 кадров/сек (1536 spf)
Битовая глубина : 16 бит
Метод сжатия : С потерями
Задержка видео : -125 мс.
Размер потока : 122 Мбайт (4%)
Default : Да
Forced : Нет
Скриншоты
[Профиль] [ЛС]
Показать сообщения:    
Ответить на тему

Текущее время: 26-Июн 04:57

Часовой пояс: UTC + 3



Вы не можете начинать темы
Вы не можете отвечать на сообщения
Вы не можете редактировать свои сообщения
Вы не можете удалять свои сообщения
Вы не можете голосовать в опросах
Вы не можете прикреплять файлы к сообщениям
Вы не можете скачивать файлы