(Trance, Tribal, Ambient) Ultrabass - Planet SYS - 1995, APE (image+.cue), lossless

Ответить на тему
 
Автор Сообщение

Bot ®

Стаж: 2 года 7 месяцев

Сообщений: 4

Создавать темы 11-Янв-2017 18:32

[Цитировать]

Ultrabass - Planet SYS
Жанр: Trance, Tribal, Ambient
Год выпуска диска: 1997
Аудио кодек: APE
Тип рипа: image+.cue
Битрейт аудио: lossless
Продолжительность: 73:07
Трэклист:
01 The Faith Of Sheep (7:43)
02 Under Ancient Skies (7:32)
03 At The Shores Of Samsara (4:38)
04 The End OF Fear (3:12)
05 A Journey Into Light (6:42)
06 The Silent Sun, The Quiet Earth (9:34)
07 The Ion Whales (7:08)
08 A Garden Of Hope (6:38)
09 Prayer Of The Holy Heart (6:24)
10 The Face Of Sleep (5:29)
11 Elegy (4:40)
12 Gyatei, Gyatei (3:16)
Лог EAC
Exact Audio Copy V0.99 prebeta 4 from 23. January 2008
Отчёт EAC об извлечении, выполненном 23. декабря 2008, 1:10
Ultrabass / Planet SYS
Дисковод: ASUS DRW-1814BL Adapter: 0 ID: 0
Режим чтения : Достоверность
Использование точного потока : Да
Отключение кэша аудио : Да
Использование указателей C2 : Нет
Коррекция смещения при чтении : 6
Способность читать области Lead-in и Lead-out : Нет
Заполнение пропущенных сэмплов тишиной : Да
Удаление блоков с тишиной в начале и конце : Нет
При вычислениях CRC использовались нулевые сэмплы : Да
Интерфейс : Установленный внешний ASPI-интерфейс
Выходной формат : Внутренние WAV-операции
Формат сэмплов : 44.100 Гц; 16 бит; стерео
TOC извлечённого CD
Трек | Старт | Длительность | Начальный сектор | Конечный сектор
---------------------------------------------------------------------
1 | 0:00.00 | 7:44.17 | 0 | 34816
2 | 7:44.17 | 7:33.48 | 34817 | 68839
3 | 15:17.65 | 4:37.30 | 68840 | 89644
4 | 19:55.20 | 3:13.32 | 89645 | 104151
5 | 23:08.52 | 6:43.15 | 104152 | 134391
6 | 29:51.67 | 9:35.48 | 134392 | 177564
7 | 39:27.40 | 7:08.65 | 177565 | 209729
8 | 46:36.30 | 6:39.17 | 209730 | 239671
9 | 53:15.47 | 6:25.43 | 239672 | 268589
10 | 59:41.15 | 5:30.40 | 268590 | 293379
11 | 65:11.55 | 4:39.35 | 293380 | 314339
12 | 69:51.15 | 3:15.55 | 314340 | 329019
Характеристики диапазона извлечения и сообщения об ошибках
Выбранный диапазон
Имя файла D:\MP3\tmp\0\Ultrabass - Planet SYS\Ultrabass - Planet SYS.wav
Пиковый уровень 98.8 %
Качество диапазона 100.0 %
CRC копии C708AA2D
Копирование... OK
Ошибок не произошло
AccurateRip: сводка
Трек 1 нет в базе данных
Трек 2 нет в базе данных
Трек 3 нет в базе данных
Трек 4 нет в базе данных
Трек 5 нет в базе данных
Трек 6 нет в базе данных
Трек 7 нет в базе данных
Трек 8 нет в базе данных
Трек 9 нет в базе данных
Трек 10 нет в базе данных
Трек 11 нет в базе данных
Трек 12 нет в базе данных
Ни одного трека нет в базе AccurateRip
Конец отчёта
Лог -=AUDIOCHECKER=-
-----------------------------------------------------------
Started at: среда, 24. 12. 2008. - 2:47.00
12 files found
01 -===- D:\MP3\tmp\0\0\0\(01) [Ultrabass] The Faith of Sheep.flac
Extracted successfully
Conclusion: this track is CDDA with probability 100%
Tempfile successfully deleted.
02 -===- D:\MP3\tmp\0\0\0\(02) [Ultrabass] Under Ancient Skies.flac
Extracted successfully
Conclusion: this track is CDDA with probability 100%
Tempfile successfully deleted.
03 -===- D:\MP3\tmp\0\0\0\(03) [Ultrabass] At the Shores of Samsara.flac
Extracted successfully
Conclusion: this track is CDDA with probability 100%
Tempfile successfully deleted.
04 -===- D:\MP3\tmp\0\0\0\(04) [Ultrabass] The End of Fear.flac
Extracted successfully
Conclusion: this track is CDDA with probability 100%
Tempfile successfully deleted.
05 -===- D:\MP3\tmp\0\0\0\(05) [Ultrabass] A Jorney into Light.flac
Extracted successfully
Conclusion: this track is CDDA with probability 100%
Tempfile successfully deleted.
06 -===- D:\MP3\tmp\0\0\0\(06) [Ultrabass] The Silent Sun, The Quiet Earth.flac
Extracted successfully
Conclusion: this track is CDDA with probability 100%
Tempfile successfully deleted.
07 -===- D:\MP3\tmp\0\0\0\(07) [Ultrabass] The Ion Whales.flac
Extracted successfully
Conclusion: this track is CDDA with probability 100%
Tempfile successfully deleted.
08 -===- D:\MP3\tmp\0\0\0\(08) [Ultrabass] A Garden of Hope.flac
Extracted successfully
Conclusion: this track is CDDA with probability 100%
Tempfile successfully deleted.
09 -===- D:\MP3\tmp\0\0\0\(09) [Ultrabass] Prayer of the Holy Heart.flac
Extracted successfully
Conclusion: this track is CDDA with probability 100%
Tempfile successfully deleted.
10 -===- D:\MP3\tmp\0\0\0\(10) [Ultrabass] The Face of Sleep.flac
Extracted successfully
Conclusion: this track is CDDA with probability 100%
Tempfile successfully deleted.
11 -===- D:\MP3\tmp\0\0\0\(11) [Ultrabass] Elegy.flac
Extracted successfully
Conclusion: this track is CDDA with probability 100%
Tempfile successfully deleted.
12 -===- D:\MP3\tmp\0\0\0\(12) [Ultrabass] Gyatei, Gyatei.flac
Extracted successfully
Conclusion: this track is CDDA with probability 100%
Tempfile successfully deleted.
Finished at: среда, 24. 12. 2008. - 2:56.45 (operation time: 0:09.44)
[Профиль] [ЛС]
Показать сообщения:    
Ответить на тему

Текущее время: 18-Окт 17:59

Часовой пояс: UTC + 3



Вы не можете начинать темы
Вы не можете отвечать на сообщения
Вы не можете редактировать свои сообщения
Вы не можете удалять свои сообщения
Вы не можете голосовать в опросах
Вы не можете прикреплять файлы к сообщениям
Вы не можете скачивать файлы