Сегодня идет свободное скачивание без начисления Download

(Black/Doom Metal) Barathrum - Eerie - 1996, FLAC (image+.cue), lossless

Ответить на тему
 
Автор Сообщение

Bot ®

Стаж: 1 год 5 месяцев

Сообщений: 5

Создавать темы 11-Янв-2017 19:32

[Цитировать]

Barathrum - Eerie
Жанр: Black/Doom Metal
Год выпуска диска: 1996
Страна: Finland
Лэйбл: Nazgul's Eyrie Production [N.E.P. 010]
Источник: Original CD
Аудио кодек: FLAC
Тип рипа: image+.cue
Битрейт аудио: lossless
Продолжительность: 64:54
Трэклист:
01. Sahttan Juoiggus (4:27)
02. Moon Calls (4:38)
03. Wanderer In The Night (5:08)
04. Vampire (4:52)
05. Nocturnal Dance (4:55)
06. Eerie (8:22)
07. The Twilight (4:30)
08. Black Goat (2:43)
09. Dagger, Seal, Vengeance (4:28)
10. Justice Of The Shining Steel (4:29)
11. Bleeding Sky (4:30)
12. Victory Feast (5:34)
13. Ravens (6:25)
Доп. информация:
Выкладываю по просьбе Darkbrides
Торрент перезалит 04.10.2010.
Рип теперь с оригинала. Сканы в комплекте.
Рецензия от Pavel Anufriev (Black Metal Plague):
Попробую обозвать данный музыкальный стиль как Dark Unholy Black Metal, потому что музыка, которую исполняет этот финский засранец сложно подогнать под какой-то стандартизированный подстиль Black Metal’a. Музыка относительно медленная, но ее невозможно спутать с Doom Metal’ом. Явно прослеживается, что музыканту не хватает профессионализма. Композиции, представленные на суд слушателя, несколько «разбиты», т.е. зачастую можно слышать, как инструменты звучат в диссонанс друг другу. Наиболее отчетливо воспринимаются барабаны и басс гитара, обычная гитара находится где-то на заднем плане и обладает очень хлиплым звучанием. Насколько мне известно, на дебютном альбоме Barathrum основатель группы – Demonos – барабанные партии исполнял человеческими костями, но здесь, слава богу, он использовал обычные палочки, хотя качество игры не изобилует мастерством, прямо сказать. Вокал пропущен через дисторшен, что придает эму жестокость в звучании. Материал относительно невысокого качества, многие композиции похожи друг на друга. Так же музыкант использовал различные f/x: церковный колокол, плачь ветра, вой волков в ночи, страдальческие вопли детей и т.д. Но это не может спасти альбом от фиаско. Я могу провести аналогии с творчеством группы Beherit. И немудрено, эти 2 финские легенды начинали трудиться на музыкальном поприще одновременно, более того Mr Nuclear Holocausto Vengeange и Demonos являются большими друзьями. Вот почему иногда звучание Barathrum “Eerie” просто невозможно отличить от Beherit “Drawing Down The Moon”. Самой выдающейся композицией на альбоме является трек “Bleeding Sky” и, пожалуй, можно купить данный диск только из-за этой песни. Это настоящий антихристианский гимн. Aarrgghhh…Убейте Бога!
Log EAC:
Exact Audio Copy V0.99 prebeta 5 from 4. May 2009
EAC extraction logfile from 15. September 2010, 21:57
Barathrum / Eerie
Used drive : TSSTcorpCDDVDW SH-S223F Adapter: 6 ID: 0
Read mode : Secure
Utilize accurate stream : Yes
Defeat audio cache : Yes
Make use of C2 pointers : No
Read offset correction : 6
Overread into Lead-In and Lead-Out : No
Fill up missing offset samples with silence : Yes
Delete leading and trailing silent blocks : No
Null samples used in CRC calculations : Yes
Used interface : Installed external ASPI interface
Used output format : User Defined Encoder
Selected bitrate : 128 kBit/s
Quality : High
Add ID3 tag : No
Command line compressor : C:\Program Files\Exact Audio Copy\Flac\flac.exe
Additional command line options : -V -8 -T "artist=%a" -T "title=%t" -T "album=%g" -T "date=%y" -T "tracknumber=%n" -T "genre=%m" %s
TOC of the extracted CD
Track | Start | Length | Start sector | End sector
---------------------------------------------------------
1 | 0:00.00 | 4:27.31 | 0 | 20055
2 | 4:27.31 | 4:38.31 | 20056 | 40936
3 | 9:05.62 | 5:08.31 | 40937 | 64067
4 | 14:14.18 | 4:51.43 | 64068 | 85935
5 | 19:05.61 | 4:55.17 | 85936 | 108077
6 | 24:01.03 | 8:21.50 | 108078 | 145702
7 | 32:22.53 | 4:30.11 | 145703 | 165963
8 | 36:52.64 | 2:42.42 | 165964 | 178155
9 | 39:35.31 | 4:27.45 | 178156 | 198225
10 | 44:03.01 | 4:28.48 | 198226 | 218373
11 | 48:31.49 | 4:29.70 | 218374 | 238618
12 | 53:01.44 | 5:34.08 | 238619 | 263676
13 | 58:35.52 | 6:24.74 | 263677 | 292550
Range status and errors
Selected range
Filename D:\CD\Rips\Barathrum - Eerie (1995)\Barathrum - Eerie.wav
Peak level 100.0 %
Range quality 100.0 %
Test CRC 58EC614E
Copy CRC 58EC614E
Copy OK
No errors occurred
AccurateRip summary
Track 1 not present in database
Track 2 not present in database
Track 3 not present in database
Track 4 not present in database
Track 5 not present in database
Track 6 not present in database
Track 7 not present in database
Track 8 not present in database
Track 9 not present in database
Track 10 not present in database
Track 11 not present in database
Track 12 not present in database
Track 13 not present in database
None of the tracks are present in the AccurateRip database
End of status report
[Профиль] [ЛС]
Показать сообщения:    
Ответить на тему

Текущее время: 27-Апр 08:19

Часовой пояс: UTC + 3



Вы не можете начинать темы
Вы не можете отвечать на сообщения
Вы не можете редактировать свои сообщения
Вы не можете удалять свои сообщения
Вы не можете голосовать в опросах
Вы не можете прикреплять файлы к сообщениям
Вы не можете скачивать файлы