Сегодня идет свободное скачивание без начисления Download

(Depressive Black Metal) Todesstos (Todesstoß) - Jenseitslüge - 2002 (2005 Re-issue), FLAC (image+.cue), lossless

Ответить на тему
 
Автор Сообщение

Bot ®

Стаж: 2 года 3 месяца

Сообщений: 4

Создавать темы 11-Янв-2017 19:32

[Цитировать]

Todesstoß - Jenseitslüge
Жанр: Depressive Black Metal
Год выпуска диска: 2002 (2005 Re-issue)
Страна: Germany
Лэйбл: Blutvergiessen Productions [BV011CD]
Источник: Original CD
Аудио кодек: FLAC
Тип рипа: image+.cue
Битрейт аудио: lossless
Продолжительность: 31:50
Трэклист:
01. Exitus (1:45)
02. Jenseitslüge (7:41)
03. Beflügelt von Eiswinden (9:06)
04. Im Schlafe sterbend (10:43)
05. Funus (2:38)
Доп. информация:
Торрент перезалит 04.10.2010.
Рип теперь с оригинала. Сканы в комплекте.
Log EAC:
Exact Audio Copy V0.99 prebeta 5 from 4. May 2009
EAC extraction logfile from 4. October 2010, 22:06
Todesstoss / Jenseitshuge
Used drive : TSSTcorpCDDVDW SH-S223F Adapter: 6 ID: 0
Read mode : Secure
Utilize accurate stream : Yes
Defeat audio cache : Yes
Make use of C2 pointers : No
Read offset correction : 6
Overread into Lead-In and Lead-Out : No
Fill up missing offset samples with silence : Yes
Delete leading and trailing silent blocks : No
Null samples used in CRC calculations : Yes
Used interface : Installed external ASPI interface
Used output format : User Defined Encoder
Selected bitrate : 128 kBit/s
Quality : High
Add ID3 tag : No
Command line compressor : C:\Program Files\Exact Audio Copy\Flac\flac.exe
Additional command line options : -V -8 -T "artist=%a" -T "title=%t" -T "album=%g" -T "date=%y" -T "tracknumber=%n" -T "genre=%m" %s
TOC of the extracted CD
Track | Start | Length | Start sector | End sector
---------------------------------------------------------
1 | 0:00.00 | 1:44.50 | 0 | 7849
2 | 1:44.50 | 7:40.68 | 7850 | 42417
3 | 9:25.43 | 9:06.32 | 42418 | 83399
4 | 18:32.00 | 10:43.17 | 83400 | 131641
5 | 29:15.17 | 2:37.57 | 131642 | 143473
Range status and errors
Selected range
Filename D:\CD\Rips\Todesstoss - Jenseitshuge (2002)\Todesstoss - Jenseitshuge.wav
Peak level 100.0 %
Range quality 100.0 %
Test CRC E3DA73A1
Copy CRC E3DA73A1
Copy OK
No errors occurred
AccurateRip summary
Track 1 accurately ripped (confidence 1) [5B3FAF48]
Track 2 accurately ripped (confidence 1) [CF6843E8]
Track 3 accurately ripped (confidence 1) [8291831F]
Track 4 accurately ripped (confidence 1) [A4BECD23]
Track 5 accurately ripped (confidence 1) [B9BEC6D4]
All tracks accurately ripped
End of status report
[Профиль] [ЛС]
Показать сообщения:    
Ответить на тему

Текущее время: 25-Май 23:04

Часовой пояс: UTC + 3



Вы не можете начинать темы
Вы не можете отвечать на сообщения
Вы не можете редактировать свои сообщения
Вы не можете удалять свои сообщения
Вы не можете голосовать в опросах
Вы не можете прикреплять файлы к сообщениям
Вы не можете скачивать файлы