Сегодня идет свободное скачивание без начисления Download

(Instrumental) Paul Mauriat - 1965... My First Recordings - 1995 (PHILIPS 528 251-2), FLAC (image+.cue), lossless

Ответить на тему
 
Автор Сообщение

Bot ®

Стаж: 3 года 3 месяца

Сообщений: 3

Создавать темы 11-Янв-2017 19:32

[Цитировать]

LE GRAND ORCHESTRE DE PAUL MAURIAT
1965... My First Recordings
- Жанр: Instrumental
Год выпуска диска: 1995
Производитель диска: PHILIPS, Mercury (France)
Аудио кодек: FLAC
Тип рипа: image+.cue
Битрейт аудио: lossless
Продолжительность: 42:44
Трэклист:
01. IO CHE NON VIVO (2:00)
02. LA BOHEME (2:50)
03. VOUS LES FEMMES (2:03)
04. LA NUIT (2:19)
05. IT’S NOT UNUSUAL (2:10)
06. THE LITTLE DRUMMER BOY (2:36)
07. LE ROSSIGNOL ANGLAIS (2:00)
08. IL SILENZIO (2:19)
09. AUX JEUNES LOUPS (2:18)
10. CAPRI C’EST FINI (2:41)
11. ATTENDS OU VA T’EN (2:06)
12. N’AVOUE JAMAIS (2:02)
13. UNE PETITE CANTATE (2:28)
14. MES MAINS SUR TES HANCHES (2:17)
15. LE CIEL, LE SOLEIL ET LA MER (2:24)
16. LOVE IN EVERY ROOM (2:30)
17. COMME TOUJOURS (2:23)
18. MON AMIE LA ROSE (2:03)
Доп. информация:
PHILIPS 528 251-2
This compilation 1995 Mercury (France)
-
Paul Mauriat "1965... My First Recordings" - Смогли бы Вы вспомнить другого автора, вписавшего в название своего произведения сухие цифры года с многозначительным многоточием?..
-
Отчёт EAC
Exact Audio Copy V0.99 prebeta 4 from 23. January 2008
Отчёт EAC об извлечении, выполненном 23. декабря 2008, 0:50
Paul Mauriat / 1965... My First Recordings
Дисковод: PLEXTOR CD-R PX-W5224A Adapter: 1 ID: 0
Режим чтения : Достоверность
Использование точного потока : Да
Отключение кэша аудио : Да
Использование указателей C2 : Нет
Коррекция смещения при чтении : 30
Способность читать области Lead-in и Lead-out : Нет
Заполнение пропущенных сэмплов тишиной : Да
Удаление блоков с тишиной в начале и конце : Нет
При вычислениях CRC использовались нулевые сэмплы : Да
Интерфейс : Установленный внешний ASPI-интерфейс
Выходной формат : Внутренние WAV-операции
Формат сэмплов : 44.100 Гц; 16 бит; стерео
TOC извлечённого CD
Трек | Старт | Длительность | Начальный сектор | Конечный сектор
---------------------------------------------------------------------
1 | 0:00.00 | 2:47.42 | 0 | 12566
2 | 2:47.42 | 2:49.48 | 12567 | 25289
3 | 5:37.15 | 2:04.35 | 25290 | 34624
4 | 7:41.50 | 2:21.72 | 34625 | 45271
5 | 10:03.47 | 2:15.70 | 45272 | 55466
6 | 12:19.42 | 2:36.00 | 55467 | 67166
7 | 14:55.42 | 2:01.15 | 67167 | 76256
8 | 16:56.57 | 2:21.48 | 76257 | 86879
9 | 19:18.30 | 2:20.72 | 86880 | 97451
10 | 21:39.27 | 2:41.08 | 97452 | 109534
11 | 24:20.35 | 2:06.72 | 109535 | 119056
12 | 26:27.32 | 2:03.55 | 119057 | 128336
13 | 28:31.12 | 2:29.68 | 128337 | 139579
14 | 31:01.05 | 2:17.42 | 139580 | 149896
15 | 33:18.47 | 2:22.33 | 149897 | 160579
16 | 35:41.05 | 2:32.62 | 160580 | 172041
17 | 38:13.67 | 2:26.28 | 172042 | 183019
18 | 40:40.20 | 2:03.27 | 183020 | 192271
Характеристики диапазона извлечения и сообщения об ошибках
Выбранный диапазон
Имя файла W:\АУДИО\Rip EAC\Paul Mauriat - 1965... My First Recordings\Paul Mauriat - 1965... My First Recordings.wav
Пиковый уровень 100.0 %
Качество диапазона 100.0 %
CRC копии 76B94B3B
Копирование... OK
Ошибок не произошло
Конец отчёта
Сканы обложки, буклета и диска
[Профиль] [ЛС]
Показать сообщения:    
Ответить на тему

Текущее время: 22-Фев 04:34

Часовой пояс: UTC + 3



Вы не можете начинать темы
Вы не можете отвечать на сообщения
Вы не можете редактировать свои сообщения
Вы не можете удалять свои сообщения
Вы не можете голосовать в опросах
Вы не можете прикреплять файлы к сообщениям
Вы не можете скачивать файлы