Сегодня идет свободное скачивание без начисления Download

(Jazz/Fusion) Stanley Clarke - If This Bass Could Only Talk - 1988 [Portrait: PRT 460883 2], WAVPack (image+.cue), lossless

Ответить на тему
 
Автор Сообщение

Bot ®

Стаж: 1 год 3 месяца

Сообщений: 2

Создавать темы 11-Янв-2017 19:32

[Цитировать]

Stanley Clarke - If This Bass Could Only Talk
Жанр: Jazz/Fusion
Год выпуска диска: 1988
Производитель диска: Portrait (PRT 460883 2)
Аудио кодек: WAVPack
Тип рипа: image+.cue
Битрейт аудио: lossless
Продолжительность: 43:15
Источник: Собственные рипы
Треклист:
1. If This Bass Could Only Talk - 2:30
2. Goodbye Pork Pie Hat - 6:25
3. I Want To Play For Ya - 3:22
4. Stories To Tell - 3:47
5. Funny How Time Flies (When You're Having Fun) - 6:05
6. Workin' Man - 6:26
7. Tradition - 7:11
8. Come Take My Hand - 4:09
9. Bassically Taps - 3:15
Доп. информация:
МУЗИЦИРОВАЛИ:
Stanley Clarke - Synthesizer, Guitar, Percussion, Multi Instruments, Keyboards, Guitar (Electric), Guitar (Bass), Guitar (Acoustic), Bass, Bass (Acoustic), Arranger, Main Performer, Producer
Byron Miller - Synthesizer Bass, Arranger, Producer
Eddie Arkin - Synthesizer, Arranger
Gerry Brown - Drums
James Earl - Bass
Steve Hunt - Synthesizer
Vance Taylor - Piano
John "J.R." Robinson - Drums
Paulinho Da Costa - Percussion
Freddie Hubbard - Trumpet
Stewart Copeland - Drums
Gregory Hines - Dancer
George Duke - Piano
Allan Holdsworth - Guitar
George Howard - Sax (Soprano)
Wayne Shorter - Sax (Soprano)
Отчёт EAC
Exact Audio Copy V0.99 prebeta 4 from 23. January 2008
EAC extraction logfile from 23. December 2008, 2:48
Stanley Clarke / If This Bass Could Only Talk
Used drive : HL-DT-STDVDRAM GSA-4167B Adapter: 0 ID: 2
Read mode : Secure
Utilize accurate stream : Yes
Defeat audio cache : Yes
Make use of C2 pointers : No
Read offset correction : 667
Overread into Lead-In and Lead-Out : No
Fill up missing offset samples with silence : Yes
Delete leading and trailing silent blocks : No
Null samples used in CRC calculations : Yes
Used interface : Installed external ASPI interface
Used output format : User Defined Encoder
Selected bitrate : 128 kBit/s
Quality : High
Add ID3 tag : No
Command line compressor : G:\Program Files\Exact Audio Copy\wavpack.exe
Additional command line options : -hm -w "Title=%t" -w "Artist=%a" -w "Year=%y" -w "Genre=%m" %s %d
TOC of the extracted CD
Track | Start | Length | Start sector | End sector
---------------------------------------------------------
1 | 0:00.00 | 2:30.22 | 0 | 11271
2 | 2:30.22 | 6:24.68 | 11272 | 40139
3 | 8:55.15 | 3:22.25 | 40140 | 55314
4 | 12:17.40 | 3:46.42 | 55315 | 72306
5 | 16:04.07 | 6:07.55 | 72307 | 99886
6 | 22:11.62 | 6:26.73 | 99887 | 128909
7 | 28:38.60 | 7:11.55 | 128910 | 161289
8 | 35:50.40 | 4:08.62 | 161290 | 179951
9 | 39:59.27 | 3:15.25 | 179952 | 194601
Range status and errors
Selected range
Filename F:\WAV\Stanley Clarke - If This Bass Could Only Talk.wav
Peak level 100.0 %
Range quality 100.0 %
Test CRC 8B7BE0F2
Copy CRC 8B7BE0F2
Copy OK
No errors occurred
AccurateRip summary
Track 1 accurately ripped (confidence 2) [0C228B67]
Track 2 accurately ripped (confidence 2) [07B7B2A2]
Track 3 accurately ripped (confidence 2) [A990ADA9]
Track 4 accurately ripped (confidence 2) [A0A9F170]
Track 5 accurately ripped (confidence 2) [EB9B5873]
Track 6 accurately ripped (confidence 2) [8105DCE1]
Track 7 accurately ripped (confidence 2) [C1BC2047]
Track 8 accurately ripped (confidence 2) [EBE2A3AB]
Track 9 accurately ripped (confidence 2) [7BB5A97D]
All tracks accurately ripped
End of status report
[Профиль] [ЛС]
Показать сообщения:    
Ответить на тему

Текущее время: 23-Янв 21:54

Часовой пояс: UTC + 3



Вы не можете начинать темы
Вы не можете отвечать на сообщения
Вы не можете редактировать свои сообщения
Вы не можете удалять свои сообщения
Вы не можете голосовать в опросах
Вы не можете прикреплять файлы к сообщениям
Вы не можете скачивать файлы