Сегодня идет свободное скачивание без начисления Download

(Rap, Dirty South) Ludacris - Дискография, FLAC (tracks+.cue), lossless

Ответить на тему
 
Автор Сообщение

Bot ®

Стаж: 2 года 4 месяца

Сообщений: 9

Создавать темы 11-Янв-2017 20:02

[Цитировать]

-Ludacris - ДискографияЖанр: Rap, Dirty South
Производитель диска: USA
Аудио кодек: FLAC
Тип рипа: tracks+.cue
Битрейт аудио: lossless
Incognegro (2000) NO LOG

[00:15] 01. Ludacris - Intro
[05:06] 02. Ludacris - U Got A Problem?
[04:09] 03. Ludacris - Game Got Switched
[03:42] 04. Ludacris - 1st & 10 (Featuring 2-D & F.R.T.E.)
[04:33] 05. Ludacris - It Wasn Us
[01:02] 06. Ludacris - Come On Over
[04:25] 07. Ludacris - Hood Stuck
[02:45] 08. Ludacris - Get Off Me ( Featuring Pastor Troy)
[03:00] 09. Ludacris - Mouthing Off (Featuring 4-IZE)
[04:52] 10. Ludacris - Midnight Train ( Featuring Chimere)
[00:42] 11. Ludacris - Ho (Skit)
[02:50] 12. Ludacris - Ho
[00:32] 13. Ludacris - Tickets Sold Out (Skit)
[04:16] 14. Ludacris - Catch up (Featuring Infamous 2-D & F.R.T.E.)
[04:35] 15. Ludacris - What's Your Fantasy (Featuring Shrwnna)
[04:21] 16. Ludacris - Rock And A Hard Place
Back For The First Time (2000)

[04:55] 01. Ludacris - U Got A Problem?
[04:09] 02. Ludacris - Game Got Switched
[03:43] 03. Ludacris - 1st & 10 (Feat. Infamous 2-0 & Fate Wilson)
[04:35] 04. Ludacris - What's Your Fantasy (Feat. Shawna)
[01:03] 05. Ludacris - Come On Over (Skit)
[04:21] 06. Ludacris - Hood Stuck
[02:45] 07. Ludacris - Get Off Me (Feat. Pastor Troy)
[03:01] 08. Ludacris - Mouthing Off (Feat. 4-Ize)
[05:05] 09. Ludacris - Stick 'em Up (Feat. UGK)
[00:42] 10. Ludacris - Ho (Skit)
[02:50] 11. Ludacris - Ho
[00:32] 12. Ludacris - Tickets Sold Out (Skit)
[04:14] 13. Ludacris - Catch Up (Feat. Infamous 2-0 & Fate Wilson)
[05:00] 14. Ludacris - Southern Hospitality (Feat. Pharrell)
[04:37] 15. Ludacris - What's Your Fantasy Remix (Feat. Trina, Shawna And Foxy Brown)
[04:58] 16. Ludacris - Phat Rabbit
Log EAC
Цитата:
EAC extraction logfile from 1. June 2007, 3:20 for CD
Ludacris / Back For The First Time
Used drive : TSSTcorpCD/DVDW SH-S182M Adapter: 1 ID: 0
Read mode : Secure with NO C2, accurate stream, NO disable cache
Read offset correction : 6
Overread into Lead-In and Lead-Out : No
Used output format : C:\Program Files\Exact Audio Copy\flac-1.1.4-win\bin\flac.exe (User Defined Encoder)
128 kBit/s
Additional command line options : -8 -A tukey(0.25) -A gauss(0.1875) -b 4096 -V -T "artist=%a" -T "title=%t" -T "album=%g" -T "date=%y" -T "tracknumber=%n" -T "genre=%m" %s --sector-align
Other options :
Fill up missing offset samples with silence : Yes
Delete leading and trailing silent blocks : No
Installed external ASPI interface
Track 1
Filename C:\Users\LMAO\Desktop\01 - U Got A Problem .wav
Pre-gap length 0:00:02.00
Peak level 97.7 %
Track quality 100.0 %
Test CRC 50F466C8
Copy CRC 50F466C8
Copy OK
Track 2
Filename C:\Users\LMAO\Desktop\02 - Game Got Switched.wav
Peak level 97.7 %
Track quality 100.0 %
Test CRC 79712D94
Copy CRC 79712D94
Copy OK
Track 3
Filename C:\Users\LMAO\Desktop\03 - 1st & 10 (Feat. Infamous 2-0 & Fate Wilson).wav
Peak level 97.7 %
Track quality 100.0 %
Test CRC 44AE0E3D
Copy CRC 44AE0E3D
Copy OK
Track 4
Filename C:\Users\LMAO\Desktop\04 - What's Your Fantasy (Feat. Shawna).wav
Peak level 97.7 %
Track quality 99.9 %
Test CRC B851DF08
Copy CRC B851DF08
Copy OK
Track 5
Filename C:\Users\LMAO\Desktop\05 - Come On Over (Skit).wav
Peak level 54.4 %
Track quality 100.0 %
Test CRC 35C3F31B
Copy CRC 35C3F31B
Copy OK
Track 6
Filename C:\Users\LMAO\Desktop\06 - Hood Stuck.wav
Pre-gap length 0:00:00.62
Peak level 97.7 %
Track quality 100.0 %
Test CRC 9C05B509
Copy CRC 9C05B509
Copy OK
Track 7
Filename C:\Users\LMAO\Desktop\07 - Get Off Me (Feat. Pastor Troy).wav
Peak level 97.7 %
Track quality 99.9 %
Test CRC 3F91D876
Copy CRC 3F91D876
Copy OK
Track 8
Filename C:\Users\LMAO\Desktop\08 - Mouthing Off (Feat. 4-Ize).wav
Peak level 82.8 %
Track quality 100.0 %
Test CRC FF7FCC0A
Copy CRC FF7FCC0A
Copy OK
Track 9
Filename C:\Users\LMAO\Desktop\09 - Stick 'em Up (Feat. UGK).wav
Pre-gap length 0:00:00.70
Peak level 97.7 %
Track quality 99.9 %
Test CRC 1B8AFB2E
Copy CRC 1B8AFB2E
Copy OK
Track 10
Filename C:\Users\LMAO\Desktop\10 - Ho (Skit).wav
Peak level 84.2 %
Track quality 99.7 %
Test CRC 002CA3D5
Copy CRC 002CA3D5
Copy OK
Track 11
Filename C:\Users\LMAO\Desktop\11 - Ho.wav
Peak level 97.7 %
Track quality 100.0 %
Test CRC 4C60EEDA
Copy CRC 4C60EEDA
Copy OK
Track 12
Filename C:\Users\LMAO\Desktop\12 - Tickets Sold Out (Skit).wav
Peak level 54.9 %
Track quality 100.0 %
Test CRC 2FEFF03C
Copy CRC 2FEFF03C
Copy OK
Track 13
Filename C:\Users\LMAO\Desktop\13 - Catch Up (Feat. Infamous 2-0 & Fate Wilson).wav
Peak level 97.7 %
Track quality 100.0 %
Test CRC C86F9C2F
Copy CRC C86F9C2F
Copy OK
Track 14
Filename C:\Users\LMAO\Desktop\14 - Southern Hospitality (Feat. Pharrell).wav
Peak level 97.7 %
Track quality 100.0 %
Test CRC 5E3E355E
Copy CRC 5E3E355E
Copy OK
Track 15
Filename C:\Users\LMAO\Desktop\15 - What's Your Fantasy Remix (Feat. Trina, Shawna And Foxy Brown).wav
Pre-gap length 0:00:00.02
Peak level 97.7 %
Track quality 100.0 %
Test CRC BB9844E8
Copy CRC BB9844E8
Copy OK
Track 16
Filename C:\Users\LMAO\Desktop\16 - Phat Rabbit.wav
Pre-gap length 0:00:01.97
Peak level 97.7 %
Track quality 100.0 %
Test CRC 957A19B7
Copy CRC 957A19B7
Copy OK
No errors occured
End of status report
Word of Mouf (2001)

[04:21] 01. Ludacris - Coming 2 America
[04:56] 02. Ludacris - Rollout (My Business)
[05:10] 03. Ludacris - Go 2 Sleep (feat. I-20, Lil Wilson, Three 6 Mafia)
[05:56] 04. Ludacris - Cry Babies (Oh No)
[04:33] 05. Ludacris - She Said (feat. Fate Wilson)
[01:11] 06. Ludacris - Howhere (Skit)
[05:03] 07. Ludacris - Area Codes (feat. Nate Dogg)
[04:49] 08. Ludacris - Growing Pains (feat. Fate Wilson, Keon Bryce)
[01:16] 09. Ludacris - Greatest Hits (Skit)
[04:30] 10. Ludacris - Move Bitch (feat. Mystikal, I-20)
[01:36] 11. Ludacris - Stop Lying (Skit)
[03:50] 12. Ludacris - Saturday (Oooh Oooh!) (feat. Sleepy Brown)
[04:46] 13. Ludacris - Keep It On The Hush (feat. Jazze Pha)
[02:11] 14. Ludacris - Word Of Mouf (Freestyle) (feat. 4-Ize)
[05:21] 15. Ludacris - Get The Fuck Back (feat. Shawnna, I-20, Fate Wilson)
[05:32] 16. Ludacris - Freaky Thangs (feat. Twista, Jagged Edge)
[06:03] 17. Ludacris - Cold Outside (feat. Chimere)
[07:48] 18. Ludacris - Block Lockdown (feat. I-20)
Log EAC
Цитата:
EAC extraction logfile from 25. May 2007, 2:09 for CD
Ludacris / Word Of Mouf
Used drive : TSSTcorpCD/DVDW SH-S182M Adapter: 1 ID: 0
Read mode : Secure with NO C2, accurate stream, disable cache
Read offset correction : 6
Overread into Lead-In and Lead-Out : No
Used output format : C:\Program Files\Exact Audio Copy\flac-1.1.4-win\bin\flac.exe (User Defined Encoder)
128 kBit/s
Additional command line options : -8 -A tukey(0.25) -A gauss(0.1875) -b 4096 -V -T "artist=%a" -T "title=%t" -T "album=%g" -T "date=%y" -T "tracknumber=%n" -T "genre=%m" %s --sector-align
Other options :
Fill up missing offset samples with silence : Yes
Delete leading and trailing silent blocks : No
Installed external ASPI interface
Track 1
Filename C:\Users\LMAO\Desktop\Word of Mouf\01 - Coming 2 America.wav
Pre-gap length 0:00:02.00
Peak level 99.9 %
Track quality 100.0 %
Test CRC 7E8D4449
Copy CRC 7E8D4449
Copy OK
Track 2
Filename C:\Users\LMAO\Desktop\Word of Mouf\02 - Rollout (My Business).wav
Peak level 98.8 %
Track quality 100.0 %
Test CRC 655FE8E6
Copy CRC 655FE8E6
Copy OK
Track 3
Filename C:\Users\LMAO\Desktop\Word of Mouf\03 - Go 2 Sleep (feat. I-20, Lil Wilson, Three 6 Mafia).wav
Peak level 98.8 %
Track quality 99.9 %
Test CRC 4E200DE8
Copy CRC 4E200DE8
Copy OK
Track 4
Filename C:\Users\LMAO\Desktop\Word of Mouf\04 - Cry Babies (Oh No).wav
Peak level 98.8 %
Track quality 100.0 %
Test CRC 1B640951
Copy CRC 1B640951
Copy OK
Track 5
Filename C:\Users\LMAO\Desktop\Word of Mouf\05 - She Said (feat. Fate Wilson).wav
Peak level 98.5 %
Track quality 100.0 %
Test CRC 7CA69BFD
Copy CRC 7CA69BFD
Copy OK
Track 6
Filename C:\Users\LMAO\Desktop\Word of Mouf\06 - Howhere (Skit).wav
Peak level 98.8 %
Track quality 100.0 %
Test CRC 23CB5E0A
Copy CRC 23CB5E0A
Copy OK
Track 7
Filename C:\Users\LMAO\Desktop\Word of Mouf\07 - Area Codes (feat. Nate Dogg).wav
Peak level 98.8 %
Track quality 100.0 %
Test CRC 55F72300
Copy CRC 55F72300
Copy OK
Track 8
Filename C:\Users\LMAO\Desktop\Word of Mouf\08 - Growing Pains (feat. Fate Wilson, Keon Bryce).wav
Peak level 98.8 %
Track quality 100.0 %
Test CRC 2D5A1854
Copy CRC 2D5A1854
Copy OK
Track 9
Filename C:\Users\LMAO\Desktop\Word of Mouf\09 - Greatest Hits (Skit).wav
Peak level 99.4 %
Track quality 100.0 %
Test CRC BD6B41CD
Copy CRC BD6B41CD
Copy OK
Track 10
Filename C:\Users\LMAO\Desktop\Word of Mouf\10 - Move Bitch (feat. Mystikal, I-20).wav
Peak level 98.8 %
Track quality 100.0 %
Test CRC 5BAD5106
Copy CRC 5BAD5106
Copy OK
Track 11
Filename C:\Users\LMAO\Desktop\Word of Mouf\11 - Stop Lying (Skit).wav
Peak level 95.7 %
Track quality 100.0 %
Test CRC A4D9F623
Copy CRC A4D9F623
Copy OK
Track 12
Filename C:\Users\LMAO\Desktop\Word of Mouf\12 - Saturday (Oooh Oooh!) (feat. Sleepy Brown).wav
Peak level 94.4 %
Track quality 100.0 %
Test CRC 2944C165
Copy CRC 2944C165
Copy OK
Track 13
Filename C:\Users\LMAO\Desktop\Word of Mouf\13 - Keep It On The Hush (feat. Jazze Pha).wav
Peak level 98.8 %
Track quality 100.0 %
Test CRC 369F8029
Copy CRC 369F8029
Copy OK
Track 14
Filename C:\Users\LMAO\Desktop\Word of Mouf\14 - Word Of Mouf (Freestyle) (feat. 4-Ize).wav
Peak level 93.2 %
Track quality 100.0 %
Test CRC AD8A594B
Copy CRC AD8A594B
Copy OK
Track 15
Filename C:\Users\LMAO\Desktop\Word of Mouf\15 - Get The Fuck Back (feat. Shawnna, I-20, Fate Wilson).wav
Peak level 99.9 %
Track quality 100.0 %
Test CRC 535BA504
Copy CRC 535BA504
Copy OK
Track 16
Filename C:\Users\LMAO\Desktop\Word of Mouf\16 - Freaky Thangs (feat. Twista, Jagged Edge).wav
Peak level 95.5 %
Track quality 100.0 %
Test CRC 96BF64C6
Copy CRC 96BF64C6
Copy OK
Track 17
Filename C:\Users\LMAO\Desktop\Word of Mouf\17 - Cold Outside (feat. Chimere).wav
Peak level 98.1 %
Track quality 100.0 %
Test CRC 5B841EAD
Copy CRC 5B841EAD
Copy OK
Track 18
Filename C:\Users\LMAO\Desktop\Word of Mouf\18 - Block Lockdown (feat. I-20).wav
Pre-gap length 0:00:00.09
Peak level 98.8 %
Track quality 99.9 %
Test CRC AADCE147
Copy CRC AADCE147
Copy OK
No errors occured
End of status report
Disturbing Tha Peace - Golden Grain (2002)

[04:37] 01. Disturbing Tha Peace - Break Sumthin'
[04:51] 02. Disturbing Tha Peace - Growing Pains (Do It Again) RMX
[04:18] 03. Disturbing Tha Peace - Posted
[04:17] 04. Disturbing Tha Peace - Smokin' Dro
[02:26] 05. Disturbing Tha Peace - Big Chain Records (Skit)
[05:13] 06. Disturbing Tha Peace - Pimp Council
[04:39] 07. Disturbing Tha Peace - Play Pen To The State Pen
[04:35] 08. Disturbing Tha Peace - R.P.M.
[03:16] 09. Disturbing Tha Peace - Can't Be Stopped (I Know)
[02:20] 10. Disturbing Tha Peace - Behind The Chains (Skit)
[04:48] 11. Disturbing Tha Peace - A-Town Hatz
[04:53] 12. Disturbing Tha Peace - N.S.E.W.
[05:06] 13. Disturbing Tha Peace - When I Touch Down
[04:43] 14. Disturbing Tha Peace - Outro On Ya Ass
[04:32] 15. Disturbing Tha Peace - Move Bitch (Bonus Track)
Log EAC
Цитата:
Exact Audio Copy V0.99 prebeta 4 from 23. January 2008
EAC extraction logfile from 2. November 2008, 21:04
Disturbing Tha Peace / Golden Grain
Used drive : HL-DT-STDVDRAM GSA-H44N Adapter: 1 ID: 0
Read mode : Secure
Utilize accurate stream : Yes
Defeat audio cache : Yes
Make use of C2 pointers : No
Read offset correction : 667
Overread into Lead-In and Lead-Out : No
Fill up missing offset samples with silence : Yes
Delete leading and trailing silent blocks : No
Null samples used in CRC calculations : Yes
Used interface : Native Win32 interface for Win NT & 2000
Gap handling : Appended to previous track
Used output format : User Defined Encoder
Selected bitrate : 320 kBit/s
Quality : High
Add ID3 tag : No
Command line compressor : C:\Programs\Exact Audio Copy\FLAC\FLAC.EXE
Additional command line options : -8 -T "Artist=%a" -T "Title=%t" -T "ALBUM=%g" -T "DATE=%y" -T "TRACKNUMBER=%n" -T "GENRE=%m" -T "COMMENT=%e" %s -o %d
TOC of the extracted CD
Track | Start | Length | Start sector | End sector
---------------------------------------------------------
1 | 0:00.00 | 4:37.67 | 0 | 20841
2 | 4:37.67 | 4:51.45 | 20842 | 42711
3 | 9:29.37 | 4:18.04 | 42712 | 62065
4 | 13:47.41 | 4:17.48 | 62066 | 81388
5 | 18:05.14 | 2:26.71 | 81389 | 92409
6 | 20:32.10 | 5:13.20 | 92410 | 115904
7 | 25:45.30 | 4:39.42 | 115905 | 136871
8 | 30:24.72 | 4:35.71 | 136872 | 157567
9 | 35:00.68 | 3:16.54 | 157568 | 172321
10 | 38:17.47 | 2:20.67 | 172322 | 182888
11 | 40:38.39 | 4:48.33 | 182889 | 204521
12 | 45:26.72 | 4:53.69 | 204522 | 226565
13 | 50:20.66 | 5:06.45 | 226566 | 249560
14 | 55:27.36 | 4:43.31 | 249561 | 270816
15 | 60:10.67 | 4:32.22 | 270817 | 291238
Track 1
Filename C:\Users\Administrator\Desktop\Disturbing Tha Peace\Golden Grain\01Break Sumthin'.wav
Pre-gap length 0:00:02.00
Peak level 98.8 %
Track quality 100.0 %
Test CRC BD2327E4
Copy CRC BD2327E4
Accurately ripped (confidence 3) [2AC733E1]
Copy OK
Track 2
Filename C:\Users\Administrator\Desktop\Disturbing Tha Peace\Golden Grain\02Growing Pains (Do It Again) RMX.wav
Pre-gap length 0:00:00.33
Peak level 98.8 %
Track quality 100.0 %
Test CRC DEEDE6D8
Copy CRC DEEDE6D8
Accurately ripped (confidence 3) [76ED89EA]
Copy OK
Track 3
Filename C:\Users\Administrator\Desktop\Disturbing Tha Peace\Golden Grain\03Posted.wav
Peak level 98.8 %
Track quality 100.0 %
Test CRC 7EE03566
Copy CRC 7EE03566
Accurately ripped (confidence 3) [93696BDD]
Copy OK
Track 4
Filename C:\Users\Administrator\Desktop\Disturbing Tha Peace\Golden Grain\04Smokin' Dro.wav
Peak level 98.8 %
Track quality 100.0 %
Test CRC ED4C904E
Copy CRC ED4C904E
Accurately ripped (confidence 3) [3500A731]
Copy OK
Track 5
Filename C:\Users\Administrator\Desktop\Disturbing Tha Peace\Golden Grain\05Big Chain Records (Skit).wav
Peak level 58.8 %
Track quality 100.0 %
Test CRC 9E5F2BAA
Copy CRC 9E5F2BAA
Accurately ripped (confidence 3) [3639774B]
Copy OK
Track 6
Filename C:\Users\Administrator\Desktop\Disturbing Tha Peace\Golden Grain\06Pimp Council.wav
Peak level 98.8 %
Track quality 100.0 %
Test CRC B639B0DA
Copy CRC B639B0DA
Accurately ripped (confidence 3) [363B91FF]
Copy OK
Track 7
Filename C:\Users\Administrator\Desktop\Disturbing Tha Peace\Golden Grain\07Play Pen To The State Pen.wav
Peak level 98.8 %
Track quality 99.9 %
Test CRC DD11940E
Copy CRC DD11940E
Accurately ripped (confidence 3) [5843A8E2]
Copy OK
Track 8
Filename C:\Users\Administrator\Desktop\Disturbing Tha Peace\Golden Grain\08R.P.M..wav
Pre-gap length 0:00:00.09
Peak level 98.8 %
Track quality 99.9 %
Test CRC 581EEE31
Copy CRC 581EEE31
Accurately ripped (confidence 3) [A2E6B0D7]
Copy OK
Track 9
Filename C:\Users\Administrator\Desktop\Disturbing Tha Peace\Golden Grain\09Can't Be Stopped (I Know).wav
Pre-gap length 0:00:00.12
Peak level 98.8 %
Track quality 100.0 %
Test CRC 51ABD108
Copy CRC 51ABD108
Accurately ripped (confidence 3) [755006E7]
Copy OK
Track 10
Filename C:\Users\Administrator\Desktop\Disturbing Tha Peace\Golden Grain\10Behind The Chains (Skit).wav
Peak level 55.5 %
Track quality 100.0 %
Test CRC 399B0AA7
Copy CRC 399B0AA7
Accurately ripped (confidence 3) [532D8480]
Copy OK
Track 11
Filename C:\Users\Administrator\Desktop\Disturbing Tha Peace\Golden Grain\11A-Town Hatz.wav
Peak level 99.6 %
Track quality 100.0 %
Test CRC 11A3AB6D
Copy CRC 11A3AB6D
Accurately ripped (confidence 3) [B225D20D]
Copy OK
Track 12
Filename C:\Users\Administrator\Desktop\Disturbing Tha Peace\Golden Grain\12N.S.E.W..wav
Pre-gap length 0:00:00.21
Peak level 98.8 %
Track quality 100.0 %
Test CRC 0BD3DF6D
Copy CRC 0BD3DF6D
Accurately ripped (confidence 3) [DFF292A8]
Copy OK
Track 13
Filename C:\Users\Administrator\Desktop\Disturbing Tha Peace\Golden Grain\13When I Touch Down.wav
Peak level 98.8 %
Track quality 100.0 %
Test CRC A98C324D
Copy CRC A98C324D
Accurately ripped (confidence 3) [20EAA505]
Copy OK
Track 14
Filename C:\Users\Administrator\Desktop\Disturbing Tha Peace\Golden Grain\14Outro On Ya Ass.wav
Peak level 98.8 %
Track quality 100.0 %
Test CRC 3FC85090
Copy CRC 3FC85090
Accurately ripped (confidence 3) [64C95E86]
Copy OK
Track 15
Filename C:\Users\Administrator\Desktop\Disturbing Tha Peace\Golden Grain\15Move Bitch (Bonus Track).wav
Peak level 98.8 %
Track quality 100.0 %
Test CRC 0E1EBC85
Copy CRC 0E1EBC85
Accurately ripped (confidence 2) [125575A7]
Copy OK
All tracks accurately ripped
No errors occurred
End of status report
Chicken -N- Beer (2003)

[03:55] 01. Ludacris - Southern Fried Intro
[04:05] 02. Ludacris - Blow It Out
[03:33] 03. Ludacris - Stand Up
[01:04] 04. Ludacris - Rob Quarters (Skit)
[04:50] 05. Ludacris - Splash Waterfalls
[05:15] 06. Ludacris - Hard Times
[04:12] 07. Ludacris - Diamond In The Back
[04:52] 08. Ludacris - Screwed Up
[00:53] 09. Ludacris - T Baggin' (Skit)
[04:49] 10. Ludacris - P-Poppin'
[03:09] 11. Ludacris - Hip Hop Quotables
[00:35] 12. Ludacris - Black Man's Struggle (Skit)
[04:39] 13. Ludacris - Hoes In My Room
[03:46] 14. Ludacris - Teamwork
[01:03] 15. Ludacris - Interactive (Skit)
[04:21] 16. Ludacris - We Got
[05:20] 17. Ludacris - Eyebrows Down
Log EAC
Цитата:
EAC extraction logfile from 4. June 2007, 20:55 for CD
Ludacris / Chicken -N- Beer
Used drive : SONY DVD+-RW DW-Q58A Adapter: 1 ID: 0
Read mode : Secure with NO C2, accurate stream, disable cache
Read offset correction : 6
Overread into Lead-In and Lead-Out : No
Used output format : C:\Program Files\FLAC\flac.exe (User Defined Encoder)
192 kBit/s
Additional command line options : -8 -A tukey(0.25) -A gauss(0.1875) -b 4096 -V -T "artist=%a" -T "title=%t" -T "album=%g" -T "date=%y" -T "tracknumber=%n" -T "genre=%m" %s --sector-align
Other options :
Fill up missing offset samples with silence : Yes
Delete leading and trailing silent blocks : No
Native Win32 interface for Win NT & 2000
Track 1
Filename C:\Documents and Settings\Kyle\Desktop\FLACs\Ludacris - Chicken -N- Beer\01. Southern Fried Intro.wav
Pre-gap length 0:00:02.00
Peak level 99.9 %
Track quality 100.0 %
Test CRC FEBCEF9A
Copy CRC FEBCEF9A
Copy OK
Track 2
Filename C:\Documents and Settings\Kyle\Desktop\FLACs\Ludacris - Chicken -N- Beer\02. Blow It Out.wav
Pre-gap length 0:00:00.01
Peak level 99.9 %
Track quality 100.0 %
Test CRC 280BEF03
Copy CRC 280BEF03
Copy OK
Track 3
Filename C:\Documents and Settings\Kyle\Desktop\FLACs\Ludacris - Chicken -N- Beer\03. Stand Up.wav
Pre-gap length 0:00:00.01
Peak level 99.9 %
Track quality 100.0 %
Test CRC 5F235503
Copy CRC 5F235503
Copy OK
Track 4
Filename C:\Documents and Settings\Kyle\Desktop\FLACs\Ludacris - Chicken -N- Beer\04. Rob Quarters (Skit).wav
Pre-gap length 0:00:00.01
Peak level 64.5 %
Track quality 100.0 %
Test CRC 1B6C64C6
Copy CRC 1B6C64C6
Copy OK
Track 5
Filename C:\Documents and Settings\Kyle\Desktop\FLACs\Ludacris - Chicken -N- Beer\05. Splash Waterfalls.wav
Pre-gap length 0:00:00.01
Peak level 99.9 %
Track quality 100.0 %
Test CRC 3CDC86E5
Copy CRC 3CDC86E5
Copy OK
Track 6
Filename C:\Documents and Settings\Kyle\Desktop\FLACs\Ludacris - Chicken -N- Beer\06. Hard Times.wav
Pre-gap length 0:00:00.01
Peak level 99.9 %
Track quality 100.0 %
Test CRC 6AAD5DE7
Copy CRC 6AAD5DE7
Copy OK
Track 7
Filename C:\Documents and Settings\Kyle\Desktop\FLACs\Ludacris - Chicken -N- Beer\07. Diamond In The Back.wav
Pre-gap length 0:00:00.01
Peak level 99.9 %
Track quality 100.0 %
Test CRC D7F99798
Copy CRC D7F99798
Copy OK
Track 8
Filename C:\Documents and Settings\Kyle\Desktop\FLACs\Ludacris - Chicken -N- Beer\08. Screwed Up.wav
Peak level 99.9 %
Track quality 99.9 %
Test CRC 9B0F092D
Copy CRC 9B0F092D
Copy OK
Track 9
Filename C:\Documents and Settings\Kyle\Desktop\FLACs\Ludacris - Chicken -N- Beer\09. T Baggin' (Skit).wav
Pre-gap length 0:00:00.01
Peak level 96.9 %
Track quality 100.0 %
Test CRC 9716A540
Copy CRC 9716A540
Copy OK
Track 10
Filename C:\Documents and Settings\Kyle\Desktop\FLACs\Ludacris - Chicken -N- Beer\10. P-Poppin'.wav
Peak level 99.9 %
Track quality 100.0 %
Test CRC E90FF133
Copy CRC E90FF133
Copy OK
Track 11
Filename C:\Documents and Settings\Kyle\Desktop\FLACs\Ludacris - Chicken -N- Beer\11. Hip Hop Quotables.wav
Peak level 99.9 %
Track quality 100.0 %
Test CRC 39AA4E42
Copy CRC 39AA4E42
Copy OK
Track 12
Filename C:\Documents and Settings\Kyle\Desktop\FLACs\Ludacris - Chicken -N- Beer\12. Black Man's Struggle (Skit).wav
Pre-gap length 0:00:00.01
Peak level 76.7 %
Track quality 99.7 %
Test CRC 6395097B
Copy CRC 6395097B
Copy OK
Track 13
Filename C:\Documents and Settings\Kyle\Desktop\FLACs\Ludacris - Chicken -N- Beer\13. Hoes In My Room.wav
Pre-gap length 0:00:00.01
Peak level 99.9 %
Track quality 100.0 %
Test CRC 5E1C769A
Copy CRC 5E1C769A
Copy OK
Track 14
Filename C:\Documents and Settings\Kyle\Desktop\FLACs\Ludacris - Chicken -N- Beer\14. Teamwork.wav
Peak level 99.9 %
Track quality 100.0 %
Test CRC E1C5E465
Copy CRC E1C5E465
Copy OK
Track 15
Filename C:\Documents and Settings\Kyle\Desktop\FLACs\Ludacris - Chicken -N- Beer\15. Interactive (Skit).wav
Pre-gap length 0:00:00.01
Peak level 76.7 %
Track quality 100.0 %
Test CRC 61F6EA25
Copy CRC 61F6EA25
Copy OK
Track 16
Filename C:\Documents and Settings\Kyle\Desktop\FLACs\Ludacris - Chicken -N- Beer\16. We Got.wav
Pre-gap length 0:00:00.01
Peak level 99.9 %
Track quality 100.0 %
Test CRC 3E206AA7
Copy CRC 3E206AA7
Copy OK
Track 17
Filename C:\Documents and Settings\Kyle\Desktop\FLACs\Ludacris - Chicken -N- Beer\17. Eyebrows Down.wav
Pre-gap length 0:00:00.01
Peak level 99.9 %
Track quality 100.0 %
Test CRC 16543336
Copy CRC 16543336
Copy OK
No errors occured
End of status report
The Red Light District (2004)

[01:25] 01. Ludacris - Intro
[04:34] 02. Ludacris - Number One Spot
[04:30] 03. Ludacris - Get Back
[04:13] 04. Ludacris - Put Your Money (ft. DMX)
[03:55] 05. Ludacris - Blueberry Yum Yum (ft. Sleepy Brown)
[05:01] 06. Ludacris - Child Of The Night (ft. Nate Dogg)
[03:54] 07. Ludacris - The Potion
[04:21] 08. Ludacris - Pass Out
[00:55] 09. Ludacris - Skit
[04:15] 10. Ludacris - Spur Of The Moment (ft. DJ Quik & Kimmi J.)
[04:56] 11. Ludacris - Who Not Me (ft. Small World & Dolla Boy)
[04:33] 12. Ludacris - Large Amounts
[05:29] 13. Ludacris - Pimpin' All Over The World (ft. Bobby V.)
[04:45] 14. Ludacris - Two Miles An Hour
[05:05] 15. Ludacris - Hopeless (ft. Trick Daddy)
[03:31] 16. Ludacris - Virgo (ft. Nas & Doug E. Fresh)
Log EAC
Цитата:
EAC extraction logfile from 3. October 2006, 20:23 for CD
Ludacris / The Red Light District
Used drive : PIONEER DVD RW DVR-107D Adapter: 1 ID: 0
Read mode : Secure with NO C2, accurate stream, disable cache
Read offset correction : 48
Overread into Lead-In and Lead-Out : No
Used output format : C:\Install\Exact Audio Copy\flac.exe (User Defined Encoder)
192 kBit/s
Additional command line options : -V -8 -T "artist=%a" -T "title=%t" -T "album=%g" -T "date=%y" -T "tracknumber=%n" -T "genre=%m" %s
Other options :
Fill up missing offset samples with silence : Yes
Delete leading and trailing silent blocks : No
Installed external ASPI interface
Track 1
Filename D:\Exact Audio Copy 0.95b3\Ludacris - The Red Light District\01 - Ludacris - Intro.wav
Pre-gap length 0:00:02.00
Peak level 97.6 %
Track quality 100.0 %
Test CRC E4FAAE55
Copy CRC E4FAAE55
Copy OK
Track 2
Filename D:\Exact Audio Copy 0.95b3\Ludacris - The Red Light District\02 - Ludacris - Number One Spot.wav
Peak level 95.4 %
Track quality 100.0 %
Test CRC CE21D0F2
Copy CRC CE21D0F2
Copy OK
Track 3
Filename D:\Exact Audio Copy 0.95b3\Ludacris - The Red Light District\03 - Ludacris - Get Back.wav
Peak level 96.5 %
Track quality 100.0 %
Test CRC AE32E5BA
Copy CRC AE32E5BA
Copy OK
Track 4
Filename D:\Exact Audio Copy 0.95b3\Ludacris - The Red Light District\04 - Ludacris - Put Your Money (ft. DMX).wav
Peak level 97.6 %
Track quality 100.0 %
Test CRC 700C44B6
Copy CRC 700C44B6
Copy OK
Track 5
Filename D:\Exact Audio Copy 0.95b3\Ludacris - The Red Light District\05 - Ludacris - Blueberry Yum Yum (ft. Sleepy Brown).wav
Peak level 97.6 %
Track quality 99.9 %
Test CRC 6B60C8E4
Copy CRC 6B60C8E4
Copy OK
Track 6
Filename D:\Exact Audio Copy 0.95b3\Ludacris - The Red Light District\06 - Ludacris - Child Of The Night (ft. Nate Dogg).wav
Peak level 88.1 %
Track quality 99.9 %
Test CRC 6D915A63
Copy CRC 6D915A63
Copy OK
Track 7
Filename D:\Exact Audio Copy 0.95b3\Ludacris - The Red Light District\07 - Ludacris - The Potion.wav
Peak level 97.6 %
Track quality 100.0 %
Test CRC 1F8924EF
Copy CRC 1F8924EF
Copy OK
Track 8
Filename D:\Exact Audio Copy 0.95b3\Ludacris - The Red Light District\08 - Ludacris - Pass Out.wav
Peak level 92.2 %
Track quality 100.0 %
Test CRC AA09BB7C
Copy CRC AA09BB7C
Copy OK
Track 9
Filename D:\Exact Audio Copy 0.95b3\Ludacris - The Red Light District\09 - Ludacris - Skit.wav
Peak level 67.5 %
Track quality 100.0 %
Test CRC 2E5580AA
Copy CRC 2E5580AA
Copy OK
Track 10
Filename D:\Exact Audio Copy 0.95b3\Ludacris - The Red Light District\10 - Ludacris - Spur Of The Moment (ft. DJ Quik & Kimmi J.).wav
Peak level 90.1 %
Track quality 100.0 %
Test CRC 40B5151B
Copy CRC 40B5151B
Copy OK
Track 11
Filename D:\Exact Audio Copy 0.95b3\Ludacris - The Red Light District\11 - Ludacris - Who Not Me (ft. Small World & Dolla Boy).wav
Peak level 77.6 %
Track quality 100.0 %
Test CRC CFD027EA
Copy CRC CFD027EA
Copy OK
Track 12
Filename D:\Exact Audio Copy 0.95b3\Ludacris - The Red Light District\12 - Ludacris - Large Amounts.wav
Peak level 86.0 %
Track quality 100.0 %
Test CRC B60D0A59
Copy CRC B60D0A59
Copy OK
Track 13
Filename D:\Exact Audio Copy 0.95b3\Ludacris - The Red Light District\13 - Ludacris - Pimpin' All Over The World (ft. Bobby V.).wav
Peak level 98.8 %
Track quality 100.0 %
Test CRC 8349A7E5
Copy CRC 8349A7E5
Copy OK
Track 14
Filename D:\Exact Audio Copy 0.95b3\Ludacris - The Red Light District\14 - Ludacris - Two Miles An Hour.wav
Peak level 90.1 %
Track quality 100.0 %
Test CRC 63EB4B72
Copy CRC 63EB4B72
Copy OK
Track 15
Filename D:\Exact Audio Copy 0.95b3\Ludacris - The Red Light District\15 - Ludacris - Hopeless (ft. Trick Daddy).wav
Peak level 86.0 %
Track quality 100.0 %
Test CRC 475B4CCF
Copy CRC 475B4CCF
Copy OK
Track 16
Filename D:\Exact Audio Copy 0.95b3\Ludacris - The Red Light District\16 - Ludacris - Virgo (ft. Nas & Doug E. Fresh).wav
Pre-gap length 0:00:00.32
Peak level 97.6 %
Track quality 100.0 %
Test CRC 890ED0A7
Copy CRC 890ED0A7
Copy OK
No errors occured
End of status report
Release Therapy (2007)

[02:30] 01. Ludacris - Warning (intro)
[03:59] 02. Ludacris - Grew Up a Screw Up (Featuring Young Jeezy)
[03:50] 03. Ludacris - Money Maker (Featuring Pharell)
[03:36] 04. Ludacris - Girls Gone Wild
[04:20] 05. Ludacris - Unlimited Satisfaction (Featuring Field Mob)
[04:18] 06. Ludacris - Mouths To Feed
[04:37] 07. Ludacris - End of the Night (Featuring Bobby Valentino)
[05:17] 08. Ludacris - Woozy (Featuring R. Kelly)
[03:56] 09. Ludacris - Tell It Like It Is
[04:30] 10. Ludacris - War With God
[05:15] 11. Ludacris - Do Your Time (Featuring Beanie Sigel, Pimp C and C-murder)
[04:40] 12. Ludacris - Slap
[04:41] 13. Ludacris - Runaway Love (Featuring Mary J. Blige)
[07:06] 14. Ludacris - Freedom of Preach (Featuring Bishop Eddie Lee Long)
Log EAC
Цитата:
EAC extraction logfile from 20. May 2007, 15:21 for CD
Ludacris / Release Therapy
Used drive : TSSTcorpCD/DVDW SH-S183L Adapter: 5 ID: 1
Read mode : Secure with NO C2, accurate stream, disable cache
Read offset correction : 6
Overread into Lead-In and Lead-Out : No
Used output format : C:\Program Files\Exact Audio Copy\flac.exe (User Defined Encoder)
128 kBit/s
Additional command line options : -8 -A tukey(0.25) -A gauss(0.1875) -b 4096 -V -T "artist=%a" -T "title=%t" -T "album=%g" -T "date=%y" -T "tracknumber=%n" -T "genre=%m" %s --sector-align
Other options :
Fill up missing offset samples with silence : Yes
Delete leading and trailing silent blocks : No
Installed external ASPI interface
Track 1
Filename Z:\Music Collection\FLACs\Ludacris\Ludacris - Release Therapy\01 - Ludacris - Warning (intro).wav
Pre-gap length 0:00:02.00
Peak level 98.8 %
Track quality 99.9 %
Test CRC 685115E6
Copy CRC 685115E6
Copy OK
Track 2
Filename Z:\Music Collection\FLACs\Ludacris\Ludacris - Release Therapy\02 - Ludacris - Grew Up a Screw Up (Featuring Young Jeezy).wav
Peak level 99.9 %
Track quality 100.0 %
Test CRC 512D1F66
Copy CRC 512D1F66
Copy OK
Track 3
Filename Z:\Music Collection\FLACs\Ludacris\Ludacris - Release Therapy\03 - Ludacris - Money Maker (Featuring Pharell).wav
Peak level 98.8 %
Track quality 100.0 %
Test CRC C4385D1C
Copy CRC C4385D1C
Copy OK
Track 4
Filename Z:\Music Collection\FLACs\Ludacris\Ludacris - Release Therapy\04 - Ludacris - Girls Gone Wild.wav
Peak level 98.8 %
Track quality 100.0 %
Test CRC 000E4FDD
Copy CRC 000E4FDD
Copy OK
Track 5
Filename Z:\Music Collection\FLACs\Ludacris\Ludacris - Release Therapy\05 - Ludacris - Unlimited Satisfaction (Featuring Field Mob).wav
Peak level 98.8 %
Track quality 100.0 %
Test CRC 376A5DB6
Copy CRC 376A5DB6
Copy OK
Track 6
Filename Z:\Music Collection\FLACs\Ludacris\Ludacris - Release Therapy\06 - Ludacris - Mouths To Feed.wav
Peak level 98.8 %
Track quality 100.0 %
Test CRC E59B0EB3
Copy CRC E59B0EB3
Copy OK
Track 7
Filename Z:\Music Collection\FLACs\Ludacris\Ludacris - Release Therapy\07 - Ludacris - End of the Night (Featuring Bobby Valentino).wav
Peak level 98.8 %
Track quality 100.0 %
Test CRC 44EAF584
Copy CRC 44EAF584
Copy OK
Track 8
Filename Z:\Music Collection\FLACs\Ludacris\Ludacris - Release Therapy\08 - Ludacris - Woozy (Featuring R. Kelly).wav
Peak level 98.8 %
Track quality 100.0 %
Test CRC 7E69827C
Copy CRC 7E69827C
Copy OK
Track 9
Filename Z:\Music Collection\FLACs\Ludacris\Ludacris - Release Therapy\09 - Ludacris - Tell It Like It Is.wav
Peak level 98.8 %
Track quality 100.0 %
Test CRC 683E6D77
Copy CRC 683E6D77
Copy OK
Track 10
Filename Z:\Music Collection\FLACs\Ludacris\Ludacris - Release Therapy\10 - Ludacris - War With God.wav
Peak level 98.8 %
Track quality 100.0 %
Test CRC 4B99F319
Copy CRC 4B99F319
Copy OK
Track 11
Filename Z:\Music Collection\FLACs\Ludacris\Ludacris - Release Therapy\11 - Ludacris - Do Your Time (Featuring Beanie Sigel, Pimp C and C-murder).wav
Peak level 98.8 %
Track quality 100.0 %
Test CRC 151EEDE2
Copy CRC 151EEDE2
Copy OK
Track 12
Filename Z:\Music Collection\FLACs\Ludacris\Ludacris - Release Therapy\12 - Ludacris - Slap.wav
Peak level 98.8 %
Track quality 100.0 %
Test CRC E71EED5D
Copy CRC E71EED5D
Copy OK
Track 13
Filename Z:\Music Collection\FLACs\Ludacris\Ludacris - Release Therapy\13 - Ludacris - Runaway Love (Featuring Mary J. Blige).wav
Peak level 98.8 %
Track quality 100.0 %
Test CRC B8F673BF
Copy CRC B8F673BF
Copy OK
Track 14
Filename Z:\Music Collection\FLACs\Ludacris\Ludacris - Release Therapy\14 - Ludacris - Freedom of Preach (Featuring Bishop Eddie Lee Long).wav
Pre-gap length 0:00:00.37
Peak level 98.8 %
Track quality 100.0 %
Test CRC BEFA676E
Copy CRC BEFA676E
Copy OK
No errors occured
End of status report
Theater Of The Mind (2008)

[01:54] 01. Ludacris - Intro
[04:33] 02. Ludacris - Undisputed ft. Floyd Money Mayweather
[04:47] 03. Ludacris - Wish You Would ft. T.I.
[03:40] 04. Ludacris - One More Drink ft. T~Pain
[04:03] 05. Ludacris - Calling Up The Homies ft. The Game and Willy Northpole
[04:33] 06. Ludacris - Southern Gangsta ft. Rick Ross, Playaz Circle and Ving Rhames
[04:53] 07. Ludacris - Everybody Hates Chris ft. Chris Rock
[04:02] 08. Ludacris - What Them Girls Like ft. Chris Brown and Sean Garrett
[04:32] 09. Ludacris - Nasty Girl ft. Plies
[04:45] 10. Ludacris - Contagious ft. Jamie Foxx
[04:09] 11. Ludacris - Last Of A Dying Breed ft. Lil Wayne
[03:49] 12. Ludacris - MVP
[05:22] 13. Ludacris - I Do It For Hip Hop ft. NAS and Jay~Z
[05:13] 14. Ludacris - Do The Right Thing ft. Common and Spike Lee
Log EAC
Цитата:
Exact Audio Copy V0.99 prebeta 4 from 23. January 2008
EAC extraction logfile from 24. November 2008, 18:51
Ludacris / Theater Of The Mind
Used drive : SONY DVD RW AW-G540A Adapter: 1 ID: 0
Read mode : Secure
Utilize accurate stream : Yes
Defeat audio cache : Yes
Make use of C2 pointers : No
Read offset correction : 48
Overread into Lead-In and Lead-Out : No
Fill up missing offset samples with silence : Yes
Delete leading and trailing silent blocks : No
Null samples used in CRC calculations : Yes
Used interface : Native Win32 interface for Win NT & 2000
Gap handling : Appended to previous track
Used output format : User Defined Encoder
Selected bitrate : 192 kBit/s
Quality : High
Add ID3 tag : No
Command line compressor : C:\Program Files\Exact Audio Copy\Flac\flac.exe
Additional command line options : -V -5 -T "artist=%a" -T "title=%t" -T "album=%g" -T "date=%y" -T "tracknumber=%n" -T "genre=%m" %s
TOC of the extracted CD
Track | Start | Length | Start sector | End sector
---------------------------------------------------------
1 | 0:00.00 | 1:54.42 | 0 | 8591
2 | 1:54.42 | 4:33.12 | 8592 | 29078
3 | 6:27.54 | 4:47.09 | 29079 | 50612
4 | 11:14.63 | 3:40.63 | 50613 | 67175
5 | 14:55.51 | 4:03.46 | 67176 | 85446
6 | 18:59.22 | 4:33.56 | 85447 | 105977
7 | 23:33.03 | 4:53.55 | 105978 | 128007
8 | 28:26.58 | 4:02.08 | 128008 | 146165
9 | 32:28.66 | 4:32.25 | 146166 | 166590
10 | 37:01.16 | 4:45.20 | 166591 | 187985
11 | 41:46.36 | 4:09.42 | 187986 | 206702
12 | 45:56.03 | 3:49.63 | 206703 | 223940
13 | 49:45.66 | 5:22.20 | 223941 | 248110
14 | 55:08.11 | 5:13.61 | 248111 | 271646
15 | 62:53.72 | 8:39.42 | 283047 | 322013
Track 1
Filename C:\EAC Rips\Ludacris - Theater of the Mind FLAC\01 - Ludacris - Intro.wav
Pre-gap length 0:00:02.00
Peak level 98.8 %
Track quality 99.9 %
Test CRC 03690D57
Copy CRC 03690D57
Copy OK
Track 2
Filename C:\EAC Rips\Ludacris - Theater of the Mind FLAC\02 - Ludacris - Undisputed ft. Floyd Money Mayweather.wav
Peak level 100.0 %
Track quality 100.0 %
Test CRC 97D4AEED
Copy CRC 97D4AEED
Copy OK
Track 3
Filename C:\EAC Rips\Ludacris - Theater of the Mind FLAC\03 - Ludacris - Wish You Would ft. T.I..wav
Peak level 99.6 %
Track quality 100.0 %
Test CRC AE00D7CB
Copy CRC AE00D7CB
Copy OK
Track 4
Filename C:\EAC Rips\Ludacris - Theater of the Mind FLAC\04 - Ludacris - One More Drink ft. T~Pain.wav
Peak level 98.8 %
Track quality 99.9 %
Test CRC 16A852F3
Copy CRC 16A852F3
Copy OK
Track 5
Filename C:\EAC Rips\Ludacris - Theater of the Mind FLAC\05 - Ludacris - Calling Up The Homies ft. The Game and Willy Northpole.wav
Peak level 98.8 %
Track quality 100.0 %
Test CRC 903F61E6
Copy CRC 903F61E6
Copy OK
Track 6
Filename C:\EAC Rips\Ludacris - Theater of the Mind FLAC\06 - Ludacris - Southern Gangsta ft. Rick Ross, Playaz Circle and Ving Rhames.wav
Peak level 98.8 %
Track quality 100.0 %
Test CRC 1C820956
Copy CRC 1C820956
Copy OK
Track 7
Filename C:\EAC Rips\Ludacris - Theater of the Mind FLAC\07 - Ludacris - Everybody Hates Chris ft. Chris Rock.wav
Peak level 98.8 %
Track quality 99.9 %
Test CRC 9FEC33C2
Copy CRC 9FEC33C2
Copy OK
Track 8
Filename C:\EAC Rips\Ludacris - Theater of the Mind FLAC\08 - Ludacris - What Them Girls Like ft. Chris Brown and Sean Garrett.wav
Peak level 98.8 %
Track quality 100.0 %
Test CRC 8F3467CC
Copy CRC 8F3467CC
Copy OK
Track 9
Filename C:\EAC Rips\Ludacris - Theater of the Mind FLAC\09 - Ludacris - Nasty Girl ft. Plies.wav
Peak level 98.9 %
Track quality 100.0 %
Test CRC 30EB8956
Copy CRC 30EB8956
Copy OK
Track 10
Filename C:\EAC Rips\Ludacris - Theater of the Mind FLAC\10 - Ludacris - Contagious ft. Jamie Foxx.wav
Peak level 99.1 %
Track quality 99.9 %
Test CRC 423CE206
Copy CRC 423CE206
Copy OK
Track 11
Filename C:\EAC Rips\Ludacris - Theater of the Mind FLAC\11 - Ludacris - Last Of A Dying Breed ft. Lil Wayne.wav
Peak level 98.8 %
Track quality 100.0 %
Test CRC A309AA41
Copy CRC A309AA41
Copy OK
Track 12
Filename C:\EAC Rips\Ludacris - Theater of the Mind FLAC\12 - Ludacris - MVP.wav
Peak level 100.0 %
Track quality 100.0 %
Test CRC 4801A7CB
Copy CRC 4801A7CB
Copy OK
Track 13
Filename C:\EAC Rips\Ludacris - Theater of the Mind FLAC\13 - Ludacris - I Do It For Hip Hop ft. NAS and Jay~Z.wav
Peak level 98.8 %
Track quality 100.0 %
Test CRC E3A2A6E6
Copy CRC E3A2A6E6
Copy OK
Track 14
Filename C:\EAC Rips\Ludacris - Theater of the Mind FLAC\14 - Ludacris - Do The Right Thing ft. Common and Spike Lee.wav
Peak level 98.8 %
Track quality 99.9 %
Test CRC 0BA472AB
Copy CRC 0BA472AB
Copy OK
No errors occurred
End of status report
рипы в 320kbps Ludacris - Discography, MP3 (tracks), 320 kbps
[Профиль] [ЛС]
Показать сообщения:    
Ответить на тему

Текущее время: 25-Ноя 04:52

Часовой пояс: UTC + 3



Вы не можете начинать темы
Вы не можете отвечать на сообщения
Вы не можете редактировать свои сообщения
Вы не можете удалять свои сообщения
Вы не можете голосовать в опросах
Вы не можете прикреплять файлы к сообщениям
Вы не можете скачивать файлы