Путешествие на Луну / A Trip to the Moon / Le Voyage dans la lune (1902) [720р] BDRip (Цветная версия)

Ответить на тему
 
Автор Сообщение

Bot ®

Стаж: 3 года 1 месяц

Сообщений: 6

Создавать темы 12-Янв-2017 02:17

[Цитировать]

Путешествие на Луну / A Trip to the Moon / Le Voyage dans la lune (1902) [720р] BDRip
- - Русское название: Путешествие на Луну
Оригинальное название: A Trip to the Moon / Le Voyage dans la lune
Страна: Франция
Год выпуска: 1902
Жанр: короткометражка, фантастика, фэнтези, приключения
Описание фильма:
Ученый делает в Академии доклад о возможности полета на Луну. После бурных дискуссий решено отправить на Луну экспедицию, для которой строится космический корабль в виде полого снаряда, который запускается в космос выстрелом из огромной пушки...
Режиссер: Жорж Мельес
Актеры: Жорж Мельес, Виктор Андре, Блоэтт Бернон, Brunnet, Жанна д’Альси, Генри Деланнуа, Depierre, Farjaut, Келм
Продолжительность: 00:15:36
Перевод: Немой
Субтитры: Русские

Дата мировой премьеры: 1 сентября 1902
Видеокодек: MPEG-4 AVC
Битрейт видео: ~8000 kbps
Размер кадра: 956x720
Качество видео: BDRip
Аудио:
1. DTS Французский 2.0 48 kHz 1509 kbps 16-bit
2. Dolby Digital Английский 2.0 48 kHz 192 kbps
Знаете ли вы, что...
• Сильно сокращенный вариант «Путешествия на Луну» был включен в качестве своеобразного «предисловия» в знаменитый фильм Майкла Андерсона «Вокруг света за 80 дней» (1956).
• До недавнего времени фильм был известен без финального фрагмента (торжественной встречи путешественников), который считался утраченным. Однако в 2002 году во Франции случайно была обнаружена полная копия фильма, которая не только включала в себя этот фрагмент, но была также раскрашена вручную. Эта копия была отреставрирована и показана на Порденонском фестивале немых фильмов в 2003 году.
• В 1903 году Томас Эдисон купил и растиражировал копию фильма в США. Из-за этого кинопиратства Мельес остался без прибылей и вскоре разорился.
MediaInfo
Общее
Уникальный идентификатор : 228926417657736444395455388215048364687 (0xAC399FD0FFF0AEDE91B3F20925A7628F)
Полное имя : L:\A.Trip.to.the.Moon.720p.BluRay.Rus.Fre.Eng.HDCLUB.EncoderN1.mkv
Формат : Matroska
Версия формата : Version 2
Размер файла : 1,06 Гбайт
Продолжительность : 15 м.
Общий поток : 9701 Кбит/сек
Дата кодирования : UTC 2012-05-09 18:20:20
Программа кодирования : mkvmerge v5.0.1 ('Es ist Sommer') built on Nov 6 2011 16:23:40
Библиотека кодирования : libebml v1.2.2 + libmatroska v1.3.0
Видео
Идентификатор : 1
Формат : AVC
Формат/Информация : Advanced Video Codec
Профиль формата : High@L4.1
Параметр CABAC формата : Да
Параметр ReFrames формата : 9 кадров
Параметры GOP формата : M=1, N=25
Идентификатор кодека : V_MPEG4/ISO/AVC
Продолжительность : 15 м.
Битрейт : 8000 Кбит/сек
Ширина : 956 пикс.
Высота : 720 пикс.
Соотношение сторон : 4:3
Частота кадров : 25,000 кадр/сек
Цветовое пространство : YUV
Подвыборка цветности : 4:2:0
Битовая глубина : 8 бит
Тип развёртки : Прогрессивная
Бит/(Пиксели*Кадры) : 0.465
Размер потока : 871 Мбайт (80%)
Библиотека кодирования : x264 core 119 r2106 07efeb4
Настройки программы : cabac=1 / ref=9 / deblock=1:-2:-2 / analyse=0x3:0x113 / me=umh / subme=10 / psy=1 / psy_rd=1.00:0.00 / mixed_ref=1 / me_range=48 / chroma_me=1 / trellis=2 / 8x8dct=1 / cqm=0 / deadzone=21,11 / fast_pskip=0 / chroma_qp_offset=-2 / threads=18 / sliced_threads=0 / nr=0 / decimate=1 / interlaced=0 / bluray_compat=0 / constrained_intra=0 / bframes=8 / b_pyramid=2 / b_adapt=2 / b_bias=0 / direct=3 / weightb=1 / open_gop=0 / weightp=2 / keyint=240 / keyint_min=24 / scenecut=40 / intra_refresh=0 / rc_lookahead=80 / rc=2pass / mbtree=1 / bitrate=8000 / ratetol=1.0 / qcomp=0.60 / qpmin=0 / qpmax=69 / qpstep=4 / cplxblur=20.0 / qblur=0.5 / ip_ratio=1.40 / aq=1:1.00
Язык : French
Аудио #1
Идентификатор : 2
Формат : DTS
Формат/Информация : Digital Theater Systems
Идентификатор кодека : A_DTS
Продолжительность : 15 м.
Вид битрейта : Постоянный
Битрейт : 1510 Кбит/сек
Каналы : 2 канала
Расположение каналов : Front: L R
Частота : 48,0 КГц
Битовая глубина : 16 бит
Метод сжатия : С потерями
Размер потока : 168 Мбайт (16%)
Заголовок : Original
Язык : French
Аудио #2
Идентификатор : 3
Формат : AC-3
Формат/Информация : Audio Coding 3
Расширение режима : CM (complete main)
Идентификатор кодека : A_AC3
Продолжительность : 15 м.
Вид битрейта : Постоянный
Битрейт : 192 Кбит/сек
Каналы : 2 канала
Расположение каналов : Front: L R
Частота : 48,0 КГц
Битовая глубина : 16 бит
Метод сжатия : С потерями
Размер потока : 21,4 Мбайт (2%)
Язык : English
Текст
Идентификатор : 4
Формат : UTF-8
Идентификатор кодека : S_TEXT/UTF8
Идентификатор кодека/Информация : UTF-8 Plain Text
Заголовок : Full - Ms_PacMan
Язык : Russian
Скриншоты:
-Раздача: 24/7-Не забываем говорить спасибо, Вам не сложно, а мне приятно)))
Прошу с раздачи не уходить! Скачал сам, дай и другим скачать!!!
Приятного просмотра)))
[Профиль] [ЛС]
Показать сообщения:    
Ответить на тему

Текущее время: 22-Окт 18:45

Часовой пояс: UTC + 3



Вы не можете начинать темы
Вы не можете отвечать на сообщения
Вы не можете редактировать свои сообщения
Вы не можете удалять свои сообщения
Вы не можете голосовать в опросах
Вы не можете прикреплять файлы к сообщениям
Вы не можете скачивать файлы