Сегодня идет свободное скачивание без начисления Download

Новые парни турбо / New Kids Turbo (2010) [1080p] BDRip

Ответить на тему
 
Автор Сообщение

Bot ®

Стаж: 1 год 6 месяцев

Сообщений: 6

Создавать темы 12-Янв-2017 04:33

[Цитировать]

Новые парни турбо / New Kids Turbo (2010) [1080p] BDRip- Студия: Eyeworks Film & TV Drama, Comedy Central, Benelux Film Distributors
Год выпуска: 2010
Жанр: Боевик, Комедия
Описание фильма:
Пятерых друзей увольняют из компании ввиду экономического кризиса. И они решают что с этого момента,мир не получит от них больше ни копейки. Они придут к вам,чтобы забрать все!!!
Режиссер: Штефен Хаарс / Steffen Haars
Актеры: Энтони Камерлинг, Николь Ван Нироп, Рейну Урлеманс, Штефен Хаарс, Хуб Смит, Ганс Тувен, Франк Ламмерс, Питер Аэртс, Гвидо Поллеманс, Тим Хаарс, Тэо Массен
Продолжительность: 01:24:47
Перевод: Любительский (одноголосый закадровый) Vova-mnemic
Cубтитры: английские
Оригинальная аудиодорожка: нидерландский


Рейтинг NC-17 - Детям до 17 лет просмотр запрещен
Видеокодек: MPEG-4 AVC/H.264
Битрейт видео: ~9570 Кбит/с
Размер кадра: 1920x800p
Качество видео: BDRip
Аудиокодек: DTS
Аудиo 1: Russian DTS 5.1, 48 kHz, 32 bit, 1510 kbps |одноголосый закадровый| Vova-mnemic
Аудио 2: Dutch DTS 5.1, 48 kHz, 32 bit, 1510 kbps |Оригинал|Скриншоты:

MediaInfo:
General
Format : Matroska
File size : 7.46 GiB
Duration : 1h 24mn
Overall bit rate : 12.6 Mbps
Encoded date : UTC 2011-05-27 06:05:04
Writing application : mkvmerge v4.8.0 ('I Got The...') сборка от May 24 2011 03:12:58
Writing library : libebml v1.2.0 + libmatroska v1.1.0
Video
ID : 1
Format : AVC
Format/Info : Advanced Video Codec
Format profile : High@L4.0
Format settings, CABAC : Yes
Format settings, ReFrames : 5 frames
Codec ID : V_MPEG4/ISO/AVC
Duration : 1h 24mn
Bit rate : 9 570 Kbps
Width : 1 920 pixels
Height : 800 pixels
Display aspect ratio : 2.40:1
Frame rate : 24.000 fps
Color space : YUV
Chroma subsampling : 4:2:0
Bit depth : 8 bits
Scan type : Progressive
Bits/(Pixel*Frame) : 0.260
Stream size : 5.52 GiB (74%)
Writing library : x264 core 114 r1924 08d04a4
Encoding settings : cabac=1 / ref=5 / deblock=1:0:0 / analyse=0x3:0x133 / me=umh / subme=7 / psy=1 / psy_rd=1.00:0.00 / mixed_ref=1 / me_range=16 / chroma_me=1 / trellis=1 / 8x8dct=1 / cqm=0 / deadzone=21,11 / fast_pskip=0 / chroma_qp_offset=-2 / threads=12 / sliced_threads=0 / nr=0 / decimate=1 / interlaced=0 / constrained_intra=0 / bframes=3 / b_pyramid=2 / b_adapt=2 / b_bias=0 / direct=3 / weightb=1 / open_gop=0 / weightp=2 / keyint=250 / keyint_min=24 / scenecut=40 / intra_refresh=0 / rc_lookahead=50 / rc=2pass / mbtree=1 / bitrate=9570 / ratetol=1.0 / qcomp=0.60 / qpmin=0 / qpmax=69 / qpstep=4 / cplxblur=20.0 / qblur=0.5 / ip_ratio=1.40 / aq=1:1.00
Audio #1
ID : 2
Format : DTS
Format/Info : Digital Theater Systems
Codec ID : A_DTS
Duration : 1h 24mn
Bit rate mode : Constant
Bit rate : 1 510 Kbps
Channel(s) : 6 channels
Channel positions : Front: L C R, Side: L R, LFE
Sampling rate : 48.0 KHz
Bit depth : 24 bits
Compression mode : Lossy
Stream size : 915 MiB (12%)
Language : Russian
Audio #2
ID : 3
Format : DTS
Format/Info : Digital Theater Systems
Codec ID : A_DTS
Duration : 1h 24mn
Bit rate mode : Constant
Bit rate : 1 510 Kbps
Channel(s) : 6 channels
Channel positions : Front: L C R, Side: L R, LFE
Sampling rate : 48.0 KHz
Bit depth : 16 bits
Compression mode : Lossy
Delay relative to video : 11ms
Stream size : 915 MiB (12%)
Language : Dutch
Text
ID : 4
Format : UTF-8
Codec ID : S_TEXT/UTF8
Codec ID/Info : UTF-8 Plain Text
Language : English
Время раздачи: 24/7 - круглосуточно
Работавший над релизом никогда не откажется от благодарности в виде СПАСИБО!!!!
[Профиль] [ЛС]
Показать сообщения:    
Ответить на тему

Текущее время: 29-Май 14:31

Часовой пояс: UTC + 3



Вы не можете начинать темы
Вы не можете отвечать на сообщения
Вы не можете редактировать свои сообщения
Вы не можете удалять свои сообщения
Вы не можете голосовать в опросах
Вы не можете прикреплять файлы к сообщениям
Вы не можете скачивать файлы