Сегодня идет свободное скачивание без начисления Download

Экзамен / Exam (2009) [720p] BDRip

Ответить на тему
 
Автор Сообщение

Bot ®

Стаж: 2 года 2 месяца

Сообщений: 5

Создавать темы 12-Янв-2017 04:33

[Цитировать]

Экзамен / Exam (2009) [720p] BDRip- Русское название: Экзамен
Оригинальное название: Exam
Производство: Великобритания
Год выпуска: 2009
Жанр: Триллер, детектив
Описание фильма:
Одна крупная корпорация проводит кастинг на вакантную должность. Восемь успешных кандидатов дошли до заключительного этапа выборов. Каждый хочет стать счастливчиком, и ради этого готов расправиться с соперниками… Действие фильма усиливает ограниченное пространство и психологический накал, ощущение безнадежности и отчаяния, которое испытывают герои, поставленные в безвыходное положение.
Режиссер: Стюарт Хэзелдайн
Актеры: Люк Мэбли, Адар Бек, Крис Кэри, Джемма Чан, Натали Кокс, Джон Ллойд Филлингэм, Чак Ивуджи, Поллианна МакИнтош, Джими Мистри, Колин Сэлмон
Продолжительность: 01:36:52
Перевод: Профессиональный многоголосый
Язык субтитров: Русский, английский
Вид субтитров: Вшитые (отключаемые)

Релиз от
Видеокодек: MPEG-4 AVC
Битрейт видео: ~5743 Кбит/с
Размер кадра: 1280x544
Качество видео: BDRip
Аудио:
1. DTS, 6 ch, 1510 Кбит/с - русский
2. AC3, 6 ch, 640 Кбит/с - английский
2. AC3, 2 ch, 224 Кбит/с - английский
MediaInfo:
Общее
Уникальный идентификатор : 176010715536591872948874931690347021522 (0x846A6E46304EC547BA57DBC3FC2DC4D2)
Полное имя : C:\Justlan\Экзамен\Ekzamen.mkv
Формат : Matroska
Версия формата : Version 2
Размер файла : 5,49 Гбайт
Продолжительность : 1 ч. 36 м.
Общий поток : 8111 Кбит/сек
Программа кодирования : mkvmerge v2.9.8 ('C'est le bon') built on Aug 13 2009 12:49:06
Библиотека кодирования : libebml v0.7.7 + libmatroska v0.8.1
Видео
Идентификатор : 1
Формат : AVC
Формат/Информация : Advanced Video Codec
Профиль формата : High@L4.1
Параметр CABAC формата : Да
Параметр ReFrames формата : 10 кадров
Идентификатор кодека : V_MPEG4/ISO/AVC
Продолжительность : 1 ч. 36 м.
Битрейт : 5743 Кбит/сек
Ширина : 1280 пикселей
Высота : 544 пикселя
Соотношение сторон : 2,35:1
Частота кадров : 25,000 кадров/сек
Цветовое пространство : YUV
Субдискретизация насыщенности : 4:2:0
Битовая глубина : 8 бит
Тип развёртки : Прогрессивная
Бит/(Пиксели*Кадры) : 0.330
Размер потока : 3,78 Гбайт (69%)
Библиотека кодирования : x264 core 100 r1659 57b2e56
Default : Да
Forced : Нет
Аудио #1
Идентификатор : 2
Формат : DTS
Формат/Информация : Digital Theater Systems
Идентификатор кодека : A_DTS
Продолжительность : 1 ч. 36 м.
Вид битрейта : Постоянный
Битрейт : 1510 Кбит/сек
Каналы : 6 каналов
Расположение каналов : Front: L C R, Side: L R, LFE
Частота : 48,0 КГц
Битовая глубина : 24 бит
Метод сжатия : С потерями
Размер потока : 1,02 Гбайт (19%)
Язык : Russian
Default : Да
Forced : Нет
Аудио #2
Идентификатор : 3
Формат : AC-3
Формат/Информация : Audio Coding 3
Расширение режима : CM (complete main)
Идентификатор кодека : A_AC3
Продолжительность : 1 ч. 36 м.
Вид битрейта : Постоянный
Битрейт : 640 Кбит/сек
Каналы : 6 каналов
Расположение каналов : Front: L C R, Side: L R, LFE
Частота : 48,0 КГц
Битовая глубина : 16 бит
Метод сжатия : С потерями
Размер потока : 444 Мбайт (8%)
Язык : English
Default : Нет
Forced : Нет
Аудио #3
Идентификатор : 4
Формат : AC-3
Формат/Информация : Audio Coding 3
Расширение режима : CM (complete main)
Идентификатор кодека : A_AC3
Продолжительность : 1 ч. 36 м.
Вид битрейта : Постоянный
Битрейт : 224 Кбит/сек
Каналы : 2 канала
Расположение каналов : Front: L R
Частота : 48,0 КГц
Битовая глубина : 16 бит
Метод сжатия : С потерями
Размер потока : 155 Мбайт (3%)
Язык : English
Default : Нет
Forced : Нет
Текст #1
Идентификатор : 5
Формат : UTF-8
Идентификатор кодека : S_TEXT/UTF8
Идентификатор кодека/Информация : UTF-8 Plain Text
Язык : Russian
Default : Нет
Forced : Нет
Текст #2
Идентификатор : 6
Формат : UTF-8
Идентификатор кодека : S_TEXT/UTF8
Идентификатор кодека/Информация : UTF-8 Plain Text
Язык : English
Default : Нет
Forced : Нет
Скриншоты: Время раздачи: Круглосуточно до 10 скачавших
[Профиль] [ЛС]
Показать сообщения:    
Ответить на тему

Текущее время: 27-Май 12:58

Часовой пояс: UTC + 3



Вы не можете начинать темы
Вы не можете отвечать на сообщения
Вы не можете редактировать свои сообщения
Вы не можете удалять свои сообщения
Вы не можете голосовать в опросах
Вы не можете прикреплять файлы к сообщениям
Вы не можете скачивать файлы