Сегодня идет свободное скачивание без начисления Download

Бен-Гур / Ben-Hur (2016) BDRemux 1080p | iTunes

Ответить на тему
 
Автор Сообщение

Bot ®

Стаж: 4 года 9 месяцев

Сообщений: 26805

Откуда: СССР

Создавать темы 12-Янв-2017 10:46

[Цитировать]

Информация о фильме
Название: Бен-Гур
Оригинальное название: Ben-Hur
Год выхода: 2016
Жанр: Драма, приключения, история
Режиссер: Тимур Бекмамбетов
В ролях: Джек Хьюстон, Тоби Кеббелл, Родриго Санторо, Назанин Бониади, Айелет Зурер, Йохан Филип Асбек, София Блэк-Д`Элиа, Морган Фримен, Марван Кензари, Мойзес Ариас
О фильме:
Иудея, 26 год н.э. Иуда Бен-Гур - мажор из знатного рода иерусалимских депутатов, разбогатевших на торговле кожаными туниками из Турции. Вся его жизнь состоит из веселья, дорогих лошадей и стрельбы по живым мишеням. Его сводный брат-римлянин Мессала, устав от взрослых развлечений, подается в римскую армию по духовным соображениям. Спустя несколько лет он возвращается в Иерусалим в качестве трибуна, чтобы возглавить ограниченный контингент римских миротворцев, осуществляющих временную миссию по поддержанию правопорядка на территории государства-клиента. Помимо интернационального долга в обязанности трибуна входит и борьба с терроризмом. Мессала обращается за помощью к своему сводному брату, но для того Иудея оказывается превыше всего. А тут еще и неудачное покушение на прокуратора, в котором ложно обвиняют всю семью Гуров. Родственные связи Иуде не помогают. Ему предстоит пережить годы скоростной гребли на галерах, чтобы вернуться в родной дом, собрать родню по кусочкам и отомстить предателю в самой фееричной гонке на колесницах, которую только видел Рим.

Страна: США
Студия: LightWorkers Media, Metro-Goldwyn-Mayer (MGM), Paramount Pictures
Продолжительность: 02:04:43
Перевод: Дублированный | iTunes
Файл
Качество: BDRemux 1080p
Видео: MPEG-4 AVC, 1920x1080, 28.5 Mbit/s, 23.976 fps
Звук:
Аудио #01: 48 kHz, AC3, 5.1, 384 Kbps | Дублированный |
Аудио #02: 48 kHz, DTS-HD MA, 7.1, 5076 kbps | Оригинал |
Субтитры: Английские
MI
Общее
Уникальный идентификатор : 240075010276835575376314698900124688724 (0xB49CC3DED8CB43F0AED4731B20636154)
Полное имя : F:VideoBen.Hur.2016.DD.BDREMUX.1080p.ExKinoRay.mkv
Формат : Matroska
Версия формата : Version 4 / Version 2
Размер файла : 29,6 Гбайт
Продолжительность : 2 ч. 4 м.
Режим общего битрейта : Переменный
Общий поток : 34,0 Мбит/сек
Название фильма : Ben-Hur.2016 build by ***селезень***
Дата кодирования : UTC 2017-01-12 05:51:44
Программа кодирования : mkvmerge v8.3.0 ('Over the Horizon') 64bit
Библиотека кодирования : libebml v1.3.1 + libmatroska v1.4.2
Видео
Идентификатор : 1
Формат : AVC
Формат/Информация : Advanced Video Codec
Профиль формата : High@L4.1
Параметр CABAC формата : Да
Параметр ReFrames формата : 4 кадра
Идентификатор кодека : V_MPEG4/ISO/AVC
Продолжительность : 2 ч. 4 м.
Вид битрейта : Переменный
Битрейт : 28,5 Мбит/сек
Максимальный битрейт : 33,0 Мбит/сек
Ширина : 1920 пикселей
Высота : 1080 пикселей
Соотношение сторон : 16:9
Режим частоты кадров : Постоянный
Частота кадров : 23,976 (24000/1001) кадра/сек
Цветовое пространство : YUV
Субдискретизация насыщенности : 4:2:0
Битовая глубина : 8 бит
Тип развёртки : Прогрессивная
Бит/(Пиксели*Кадры) : 0.573
Размер потока : 24,8 Гбайт (84%)
Заголовок : Ben-Hur.2016 build by ***селезень***
Язык : English
Default : Да
Forced : Нет
Аудио #1
Идентификатор : 2
Формат : AC-3
Формат/Информация : Audio Coding 3
Расширение режима : CM (complete main)
Параметр Endianness формата : Big
Идентификатор кодека : A_AC3
Продолжительность : 2 ч. 4 м.
Вид битрейта : Постоянный
Битрейт : 384 Кбит/сек
Каналы : 6 каналов
Расположение каналов : Front: L C R, Side: L R, LFE
Частота : 48,0 КГц
Частота кадров : 31,250 кадров/сек (1536 spf)
Битовая глубина : 16 бит
Метод сжатия : С потерями
Размер потока : 343 Мбайт (1%)
Заголовок : Dub [iTunes]
Язык : Russian
Default : Да
Forced : Нет
Аудио #2
Идентификатор : 3
Формат : DTS
Формат/Информация : Digital Theater Systems
Профиль формата : MA / Core
Режим : 16
Параметр Endianness формата : Big
Идентификатор кодека : A_DTS
Продолжительность : 2 ч. 4 м.
Вид битрейта : Переменный / Постоянный
Битрейт : 5076 Кбит/сек / 1509 Кбит/сек
Каналы : 8 каналов / 6 каналов
Расположение каналов : Front: L C R, Side: L R, Back: L R, LFE / Front: L C R, Side: L R, LFE
Частота : 48,0 КГц
Частота кадров : 93,750 кадра/сек (512 spf)
Битовая глубина : 24 бит
Метод сжатия : Без потерь / Lossy
Размер потока : 4,42 Гбайт (15%)
Заголовок : Original
Язык : English
Default : Нет
Forced : Нет
Текст #1
Идентификатор : 4
Формат : UTF-8
Идентификатор кодека : S_TEXT/UTF8
Идентификатор кодека/Информация : UTF-8 Plain Text
Продолжительность : 1 ч. 56 м.
Битрейт : 45 бит/сек
Count of elements : 1438
Размер потока : 38,6 Кбайт (0%)
Заголовок : Full
Язык : English
Default : Нет
Forced : Нет
Текст #2
Идентификатор : 5
Формат : UTF-8
Идентификатор кодека : S_TEXT/UTF8
Идентификатор кодека/Информация : UTF-8 Plain Text
Продолжительность : 1 ч. 56 м.
Битрейт : 51 бит/сек
Count of elements : 1644
Размер потока : 44,3 Кбайт (0%)
Заголовок : SDH
Язык : English
Default : Нет
Forced : Нет
Меню
00:00:00.000 : en:00:00:00.000
00:07:03.882 : en:00:07:03.882
00:15:42.942 : en:00:15:42.942
00:19:47.895 : en:00:19:47.895
00:27:25.853 : en:00:27:25.853
00:33:09.362 : en:00:33:09.362
00:41:07.215 : en:00:41:07.215
00:48:20.064 : en:00:48:20.064
00:55:21.652 : en:00:55:21.652
01:05:41.229 : en:01:05:41.229
01:13:15.891 : en:01:13:15.891
01:22:26.900 : en:01:22:26.900
01:31:30.193 : en:01:31:30.193
01:39:55.656 : en:01:39:55.656
01:46:30.801 : en:01:46:30.801
01:54:54.638 : en:01:54:54.638
[Профиль] [ЛС]
Показать сообщения:    
Ответить на тему

Текущее время: 27-Фев 18:51

Часовой пояс: UTC + 3



Вы не можете начинать темы
Вы не можете отвечать на сообщения
Вы не можете редактировать свои сообщения
Вы не можете удалять свои сообщения
Вы не можете голосовать в опросах
Вы не можете прикреплять файлы к сообщениям
Вы не можете скачивать файлы