(Blues) John Lee Hooker - Jealous - 1987 ( 2007-Remastered ), FLAC (image+.cue), lossless

Ответить на тему
 
Автор Сообщение

Bot ®

Стаж: 1 год 11 месяцев

Сообщений: 10

Создавать темы 12-Янв-2017 12:02

[Цитировать]

John Lee Hooker - Jealous
Жанр: Blues
Год выпуска диска: 2007 ( 1987 )
Производитель диска: Germany SPV 95982
Аудио кодек: FLAC
Тип рипа: image+.cue
Битрейт аудио: lossless
Продолжительность: 49:19
Трэклист:
01. Jealous (3:30)
02. Ninety Days (3:26)
03. Early One Morning (4:04)
04. When My First Wife Left Me (4:33)
05. Boogie Woman (4:28)
06. Well Well (4:49)
07. I Didn't Know (3:02)
08. We'll Meet Again (3:59)
09. Worried Life Blues (2:29)
10. Ninety Days (Reprise) (3:22)
Bonus tracks
11. Lonely Man (6:26)
12. Decoration Day (5:11)
EAC log.
Exact Audio Copy V0.99 prebeta 4 from 23. January 2008
Отчёт EAC об извлечении, выполненном 16. августа 2008, 1:52
Hooker, John Lee / Jealous
Дисковод: Optiarc DVD RW AD-7173A Adapter: 1 ID: 0
Режим чтения : Достоверность
Использование точного потока : Да
Отключение кэша аудио : Да
Использование указателей C2 : Нет
Коррекция смещения при чтении : 48
Способность читать области Lead-in и Lead-out : Нет
Заполнение пропущенных сэмплов тишиной : Да
Удаление блоков с тишиной в начале и конце : Нет
При вычислениях CRC использовались нулевые сэмплы : Да
Интерфейс : Установленный внешний ASPI-интерфейс
Выходной формат : Пользовательский кодировщик
Выбранный битрейт : 640 kBit/s
Качество : Высокий
Добавление ID3-тэга : Нет
Утилита сжатия : C:\Downloads\Программы\flac-1.1.1-win\bin\flac.exe
Дополнительные параметры : -V -8 -T "artist=%a" -T "title=%t" -T "album=%g" -T "date=%y" -T "tracknumber=%n" -T "genre=%m" %s
TOC извлечённого CD
Трек | Старт | Длительность | Начальный сектор | Конечный сектор
---------------------------------------------------------------------
1 | 0:00.00 | 3:29.62 | 0 | 15736
2 | 3:29.62 | 3:26.00 | 15737 | 31186
3 | 6:55.62 | 4:03.45 | 31187 | 49456
4 | 10:59.32 | 4:32.68 | 49457 | 69924
5 | 15:32.25 | 4:28.25 | 69925 | 90049
6 | 20:00.50 | 4:48.70 | 90050 | 111719
7 | 24:49.45 | 3:02.22 | 111720 | 125391
8 | 27:51.67 | 3:59.15 | 125392 | 143331
9 | 31:51.07 | 2:28.73 | 143332 | 154504
10 | 34:20.05 | 3:22.20 | 154505 | 169674
11 | 37:42.25 | 6:26.00 | 169675 | 198624
12 | 44:08.25 | 5:11.05 | 198625 | 221954
Характеристики диапазона извлечения и сообщения об ошибках
Выбранный диапазон
Имя файла J:\Новая папка\Rip\Hooker, John Lee - Jealous.wav
Пиковый уровень 97.7 %
Качество диапазона 100.0 %
CRC теста 7C512BDC
CRC копии 7C512BDC
Копирование... OK
Ошибок не произошло
AccurateRip: сводка
Трек 1 нет в базе данных
Трек 2 нет в базе данных
Трек 3 нет в базе данных
Трек 4 нет в базе данных
Трек 5 нет в базе данных
Трек 6 нет в базе данных
Трек 7 нет в базе данных
Трек 8 нет в базе данных
Трек 9 нет в базе данных
Трек 10 нет в базе данных
Трек 11 нет в базе данных
Трек 12 нет в базе данных
Ни одного трека нет в базе AccurateRip
Конец отчёта
Рип с фирменного диска.
1992-Boom Boom-(2007-Remastered)
1997-Don't Look Back-(2007-Remastered)
1998-The Best Of Friends-(2007-Remastered)
[Профиль] [ЛС]
Показать сообщения:    
Ответить на тему

Текущее время: 25-Сен 14:30

Часовой пояс: UTC + 3



Вы не можете начинать темы
Вы не можете отвечать на сообщения
Вы не можете редактировать свои сообщения
Вы не можете удалять свои сообщения
Вы не можете голосовать в опросах
Вы не можете прикреплять файлы к сообщениям
Вы не можете скачивать файлы