(New Wave) Japan - Obscure Alternatives - 1978, APE (image+.cue), lossless

Ответить на тему
 
Автор Сообщение

Bot ®

Стаж: 2 года 7 месяцев

Сообщений: 6

Создавать темы 12-Янв-2017 12:02

[Цитировать]

Japan - Obscure Alternatives
Жанр: New Wave
Год выпуска диска: 1978
Производитель диска: UK
Аудио кодек: APE
Тип рипа: image+.cue
Битрейт аудио: lossless
Продолжительность: 41:25
Трэклист:
1. Automatic Gun (4:06)
2. . . . Rhodesia (6:50)
3. Love Is Infectious (4:12)
4. Sometimes I Feel So Low (3:50)
5. Obscure Alternatives (6:49)
6. Deviation (3:24)
7. Suburban Berlin (5:01)
8. The Tenant (7:13)
Отчёт EAC
Exact Audio Copy V0.99 prebeta 4 from 23. January 2008
Отчёт EAC об извлечении, выполненном 11. ноября 2008, 22:11
Japan / Obscure Alternatives
Дисковод: Optiarc DVD RW AD-7630A Adapter: 1 ID: 0
Режим чтения : Достоверность
Использование точного потока : Да
Отключение кэша аудио : Да
Использование указателей C2 : Нет
Коррекция смещения при чтении : 48
Способность читать области Lead-in и Lead-out : Нет
Заполнение пропущенных сэмплов тишиной : Да
Удаление блоков с тишиной в начале и конце : Нет
При вычислениях CRC использовались нулевые сэмплы : Да
Интерфейс : Встроенный Win32-интерфейс для Win NT/2000
Выходной формат : Внутренние WAV-операции
Формат сэмплов : 44.100 Гц; 16 бит; стерео
TOC извлечённого CD
Трек | Старт | Длительность | Начальный сектор | Конечный сектор
---------------------------------------------------------------------
1 | 0:00.00 | 4:06.25 | 0 | 18474
2 | 4:06.25 | 6:50.01 | 18475 | 49225
3 | 10:56.26 | 4:12.00 | 49226 | 68125
4 | 15:08.26 | 3:50.16 | 68126 | 85391
5 | 18:58.42 | 6:49.53 | 85392 | 116119
6 | 25:48.20 | 3:24.23 | 116120 | 131442
7 | 29:12.43 | 5:01.10 | 131443 | 154027
8 | 34:13.53 | 7:13.30 | 154028 | 186532
Характеристики диапазона извлечения и сообщения об ошибках
Выбранный диапазон
Имя файла C:\temp\Japan - Obscure Alternatives.wav
Пиковый уровень 98.2 %
Качество диапазона 100.0 %
CRC копии 27B4472B
Копирование... OK
Ошибок не произошло
AccurateRip: сводка
Трек 1 нет в базе данных
Трек 2 нет в базе данных
Трек 3 нет в базе данных
Трек 4 нет в базе данных
Трек 5 нет в базе данных
Трек 6 нет в базе данных
Трек 7 нет в базе данных
Трек 8 нет в базе данных
Ни одного трека нет в базе AccurateRip
Конец отчёта
[Профиль] [ЛС]
Показать сообщения:    
Ответить на тему

Текущее время: 25-Июл 07:51

Часовой пояс: UTC + 3



Вы не можете начинать темы
Вы не можете отвечать на сообщения
Вы не можете редактировать свои сообщения
Вы не можете удалять свои сообщения
Вы не можете голосовать в опросах
Вы не можете прикреплять файлы к сообщениям
Вы не можете скачивать файлы