Сегодня идет свободное скачивание без начисления Download

(Pop) Блестящие - Дискография (9CD) - 1997 - 2008, FLAC (image+.cue), lossless

Ответить на тему
 
Автор Сообщение

Bot ®

Стаж: 1 год 10 месяцев

Сообщений: 3

Создавать темы 12-Янв-2017 12:17

[Цитировать]

Блестящие Жанр: Pop
Год выпуска диска: 1997-2008
Производитель диска: Россия/Sweden/Germany
Аудио кодек: FLAC
Тип рипа: image + .cue
Битрейт аудио: lossless
скрытый текст
История группы:

Группа "Блестящие" организована в 1996 году. Первый состав группы: ВАРЯ КОРОЛЕВА, ОЛЬГА ОРЛОВА, ПОЛИНА ИОДИС. В этом составе был записан первый альбом - "ТАМ-ТОЛЬКО ТАМ". После его выхода в свет в группе произошли изменения: ВАРЯ КОРОЛЕВА прекратила работу в коллективе, и в него были приглашены две новые девушки - ЖАННА ФРИСКЕ и ИРИНА ЛУКЬЯНОВА.
Второй состав группы: ПОЛИНА ИОДИС, ЖАННА ФРИСКЕ, ОЛЬГА ОРЛОВА, ИРИНА ЛУКЬЯНОВА. Именно в этом составе "Блестящие" прочно заняли верхние ступени основных российских хит-парадов и записали два альбома: "ТАМ-ТОЛЬКО ТАМ (Re-Mixes)" и "ПРОСТО МЕЧТЫ" В 1998 году ПОЛИНА ИОДИС покинула группу и девушки продолжали работать втроем.
Третий состав группы: Слева направо: ИРИНА ЛУКЬЯНОВА, ЖАННА ФРИСКЕ, ОЛЬГА ОРЛОВА. В августе 1999 года в коллектив снова была приглашена четвертая солистка -КСЕНИЯ НОВИКОВА.
Четвертый состав группы: ЖАННА ФРИСКЕ, ИРИНА ЛУКЬЯНОВА, ОЛЬГА ОРЛОВА, КСЕНИЯ НОВИКОВА. В новом составе вышел в свет альбом "О ЛЮБВИ", презентация которого состоялась 1-го февраля 2000 года в развлекательном комплексе "Метелица". Группа является лауреатом премии "Овация", "Поколение", "Золотой Граммофон", "Песня года", успешно гастролирует в городах России, стран Ближнего Зарубежья и за Рубежом. Мы постоянно будем обновлять сайт "горячими" новостями, проводить пресс-конференции с участницами группы, поэтому читайте наш материал, готовьте и задавайте вопросы и вы обо всем узнаете первыми. Напоминаем вам, что этот сайт является единственным официальным, так что остальные - всего лишь плоды творчества наших уважаемых поклонников, которым мы отдаем должное за их, во истину титанические, труды, но в то же время выражаем сомнение в достоверности предлагаемой информации
Группа "Блестящие" образовалась в 1995 году. Идея создать "наш ответ Spice Girls" посетила продюсеров Андрея Шлыкова и Андрея Грозного, до этого работающих с "МФ-3". Первая же песня "Блестящих" - "Там, только там" - ворвалась во всевозможные хит-парады, за ней последовали "Цветы" и "Туман", вошедшие в дебютный альбом "Блестящих" "Там, только там". Снятые на эти композиции видеоклипы сделали группу невероятно популярной и девушки отправились с концертами по стране. В перерывах между гастролями "Блестящие" усиленно работают в студии. Результатом становится альбом "Просто мечты", в который вошли такие музыкальные бестселлеры как "Где же ты, где?", "Облака", "Ча-ча-ча" и другие. Осенью 1999 года были сняты 2 видеоклипа на песни "Чао - бамбино" и "За осенью приходит зима" из нового альбома группы "О любви", после выхода которого журналисты единогласно назвали "Блестящих" лучшей женской группой года. Успех был закреплен выходом сборника "The Best", куда вошли лучше песни группы, в том числе и ее два новых хита - "Белым снегом" и "Долго ждала тебя". На обе эти песни были сняты видеоклипы. Последний - "Долго тебя ждала" (реж. Филипп Янковский, оператор - Влад Опельянц) долго время находился в "Русской десятке".
...далее

Группа состоит из 4-х девушек:
Жанна Фриске - считается в группе признанным специалистом по части нарядов, причем, как сценических, так и тех, что девушки носят "на каждый день". Каждую свою покупку "Блестящие" демонстрируют Жанне и очень прислушиваются к ее мнению. Именно Жанна приобретает всей группе концертные костюмы - начиная с самых первых - знаменитых обтягивающих брючек и топиков - и заканчивая нынешними элегантными платьями. Жанна в свободное от работы время работает в студии и записывает свой сольный альбом. Первую песню из этого альбома, которую Жанна написала была песня "Лечу в темноту", на эту песню был снят клип, который сейчас крутиться на всех музыкальных каналах. Ирина Лукьянова - самое изящное и хрупкое создание в группе. Ее вес около сорока килограмм - предмет зависти всем, кто хочет похудеть. При этом Ира ни каких диет не соблюдает и не в чем себя не ограничивает. Неплохо шьет и это не единственное ее достоинство.
После ухода из "Блестящих" Ольги Орловой место солистки заняла Ксенья Новикова - в шоу-бизнессе - не новичок, до "Блестящих" работала в группе "Класс", но "выросла из нее". Узнав о том, что ее взяли в "Блестящие", была на седьмом небе от счастья. В этом же состоянии находится до сих пор.
И, наконец, четвертая участница "Блестящих" - Ковальчук Юлия. Самая юная участница в коллективе - ей всего 19 лет. Учится в Университете Культуры на отделении хореографии. В группу попала по прохождению отбора в балет группы. Протанцевав 2 месяца, продюсер коллектива А.Грозный предложил ей в своей студии, что-нибудь спеть, так и поет по сей день в группе. Первое ее выступление в составе "Блестящих" это была съемка Песни года - 5 сентября 2001 года. О себе говорит: "Просто я оказалась в "Блестящих" в нужное время и в нужный час". В сентябре был снят клип на песню "Ау-Ау" из нового альбома группы. Награды и призы: Приз зрительских симпатий на фестивале "Поколение-98" за клип "Облака" "Овация-98" в номинации "Лучшая поп-группа года" "Золотой грамофон-98", "Золотой грамофон-99" Стопудовый хит от "Хит-FM"-98, 99, 2000 года Приз зрительских симпатий MTV по опросу 1998 года Изначально группа состояла из трех девушек: Ольги Орловой, Полины Иодис и Варвары Королевой. Но сразу после выпуска первого альбома Варя покинула группу. На ее место взяли сразу двух других участниц - Жанну Фриске и Ирину Лукьянову. В этом составе девушки пропели два года. Вскоре ушла Полина и в 1999 году к группе присоединилась Ксения Новикова. Буквально через год по семейным обстоятельствам оставила коллектив Ольга Орлова (она все это время была солисткой и автором многих песен, сделавших «Блестящих» знаменитыми). Ее сменила юная Юлия Ковальчук, которая к тому же успешно занималась на факультете хореографии. В 2003 году ушла Ирина Лукьянова – она, как и Орлова в свое время, ждала ребенка. К «Блестящим» присоединилась чемпионка по фигурному катанию Анна Семенович. В прошлом году отправилась в сольное плавание Жанна Фриске, правда, не сменив продюсеров. Таким образом, коллектив «дошел до Ручки», точнее обрел Надю Ручку - она в команде с 1 апреля 2004 года. Итак теперь группа «Блестящие» - это Ксюша Новикова, Юля Ковальчук, Аня Семенович и Надя Ручка.
Группа «Блестящие» была создана в 1995 году двумя продюсерами Андреем Грозным и Андреем Шлыковым. Несмотря на большое количество серьезных проектов, в которых принимают участие продюсеры, главным своим детищем и достижением они считают группу «Блестящие». С первой же песни «Там, только там» девушки покорили зрителей своей яркой внешностью, приятными голосами, сексуальностью и открытостью. Альбомам группы: «Там, только там» (1997), «Там, только там (remixes) (1997), «Просто мечты» (1998), «О любви» (2000), «Белым снегом» (2000), «The Best» (2001), «За четыре моря» (2002), «Апельсиновый рай» (2003) сопутствовал успех.
«Блестящие» один из первых girls-бэндов в России, однако группа и по сей день занимает уверенную позицию среди прочих девичьих коллективов. О «Блестящих» закрепилось мнение как о группе исполняющей песни легкие, добрые и жизнерадостные. Даже когда они поют о несчастной, безответной любви им удаются преподнести это так, чтобы на душе становилось веселей и радостей.
Ксюша Новикова. Родилась в Москве 19 мая. С пяти лет пела в молодежной группе «Класс». Ксюша не только прекрасно поет и танцует, но и сама пишет песни. «А я все летала» (2002) стала настоящим хитом и завоевала многочисленные музыкальные премии. Ксения Новикова увлекается плаваньем, йогой и любит кататься на роликах. Певица отлично готовит итальянские блюда и в будущем не прочь открыть свой собственный ресторан.
Юля Ковальчук. Родилась в городе Волжске 12 ноября. Юля с детства профессионально занималась танцами. Вместе с танцевальным коллективом ездила на гастроли по России и за границу. В 15 лет Юля организовала свой ансамбль эстрадного танца. Ей прочили блестящую танцевальную карьеру, но девушка всегда мечтала стать певицей. Юлина мечта сбылась, но и про танцы она забывать не намерена. В настоящее время Юля Ковальчук занимается подготовкой к открытию собственной школы танцев.
Аня Семенович. Москвичка, отмечает день своего рождения в первый день весны – 1 марта. До того как попала в группу, занималась фигурным катанием у известных тренеров Натальи Линичук и Геннадия Карпоносова, входила в шестерку сильнейших спортсменов мира, была призером многих международных соревнований и чемпионкой России в паре с Кастамаровым. Успела поработать ведущей в музыкальной программе и завоевать титулы «Мисс обаяние» и «Мисс бюст». До того, как стала «Блестящей», была солисткой собственной группы «Ангелы Чарли». В 2004 году Аня Семенович снялась в сериале «Холостяки».
Надя Ручка. Родилась 16 апреля в городе Никополь (Украина). Долгое время работала моделью. Участвовала в показах мод, снималась для глянцевых журналов и в рекламе. Пела в группе Party, в составе которой много гастролировала. Надя Ручка пишет стихи и музыку. Ее песни поют известные российские исполнители и коллективы. Надя любит читать, отдыхать на природе за городом и просто поспать.
Дискография группы:
"Там - только там" - 1997 год
"Там, только там" (ремиксы) - 1997 год
"Просто мечты" - 1998 год
"О любви" - 2000 год
"Белым снегом" - 2000 год
"За четыре моря" - 2000 год
"Апельсиновый рай " - 2003 год
"Восточные сказки " - 2005 год
"Одноклассники " - 2008 год
23 декабря
Добавлен альбом ремиксов
1997. Там - только там
Там - только там Трэклист:
01. Цветы
02. Луна
03. Туман
04. Там, только там
05. Звук дождя (дуэт О.Орлова К.Рэй)
06. Хаус мажор
07. Ветер
08. Посмотри на небо
09. Рисунок
10. Однажды любовь
11. Mega Mix I
12. Mega Mix II
Back
Лог
Exact Audio Copy V0.99 prebeta 5 from 4. May 2009
Отчёт EAC об извлечении, выполненном 14. июня 2009, 23:47
Блестящие / Там - только там
Дисковод: ASUS DRW-1814BL Adapter: 1 ID: 0
Режим чтения : Достоверность
Использование точного потока : Да
Отключение кэша аудио : Да
Использование указателей C2 : Нет
Коррекция смещения при чтении : 6
Способность читать области Lead-in и Lead-out : Нет
Заполнение пропущенных сэмплов тишиной : Да
Удаление блоков с тишиной в начале и конце : Нет
При вычислениях CRC использовались нулевые сэмплы : Да
Интерфейс : Установленный внешний ASPI-интерфейс
Выходной формат : Внутренние WAV-операции
Формат сэмплов : 44.100 Гц; 16 бит; стерео
TOC извлечённого CD
Трек | Старт | Длительность | Начальный сектор | Конечный сектор
---------------------------------------------------------------------------------------
1 | 0:00.00 | 3:55.38 | 0 | 17662
2 | 3:55.38 | 5:41.00 | 17663 | 43237
3 | 9:36.38 | 4:00.12 | 43238 | 61249
4 | 13:36.50 | 4:05.15 | 61250 | 79639
5 | 17:41.65 | 5:23.10 | 79640 | 103874
6 | 23:05.00 | 3:45.63 | 103875 | 120812
7 | 26:50.63 | 5:26.32 | 120813 | 145294
8 | 32:17.20 | 3:20.28 | 145295 | 160322
9 | 35:37.48 | 5:03.30 | 160323 | 183077
10 | 40:41.03 | 5:30.47 | 183078 | 207874
11 | 46:11.50 | 5:43.48 | 207875 | 233647
12 | 51:55.23 | 6:24.62 | 233648 | 262509
Характеристики диапазона извлечения и сообщения об ошибках
Выбранный диапазон
Имя файла E:\НА-А-А-АШЕ!!!!!!!\Блестящие\2000.Там - только там\Блестящие - Там - только там.wav
Пиковый уровень 97.7 %
Качество диапазона 100.0 %
CRC теста 3B9A0B69
CRC копии 3B9A0B69
Копирование... OK
Ошибок не произошло
AccurateRip: сводка
Трек 1 нет в базе данных
Трек 2 нет в базе данных
Трек 3 нет в базе данных
Трек 4 нет в базе данных
Трек 5 нет в базе данных
Трек 6 нет в базе данных
Трек 7 нет в базе данных
Трек 8 нет в базе данных
Трек 9 нет в базе данных
Трек 10 нет в базе данных
Трек 11 нет в базе данных
Трек 12 нет в базе данных
Ни одного трека нет в базе AccurateRip
Конец отчёта
1997. Там - только там (Remixes)
Там - только там (Remixes) Трэклист:
01. Посмотри на небо (dj Иванов)
02. Цветы (dance version) (dj Грув)
03. Там - только там (Роман Рябцев)
04. Луна (dance version) (dj Sky и dj Dan)
05. Луна (ак.гитара) (Валерий Долгин)
06. Однажды любовь (Евгений Родионов)
07. Туман (dance version) (Евгений Родионов)
08. Туман (house version) (Андрей Недугов)
09. Рисунок (Сергей Харута)
10. Sunday (Андрей Грозный)
11. Там - только там (CD-оки версия)
12. Цветы (CD-оки версия)
13. Туман (CD-оки версия)
14. Sample library (для djs)
Back
Лог
Exact Audio Copy V0.99 prebeta 5 from 4. May 2009
Отчёт EAC об извлечении, выполненном 23. декабря 2009, 20:16
Блестящие / Там - только там (Remixes)
Дисковод: ASUS DRW-1814BL Adapter: 1 ID: 0
Режим чтения : Достоверность
Использование точного потока : Да
Отключение кэша аудио : Да
Использование указателей C2 : Нет
Коррекция смещения при чтении : 6
Способность читать области Lead-in и Lead-out : Нет
Заполнение пропущенных сэмплов тишиной : Да
Удаление блоков с тишиной в начале и конце : Нет
При вычислениях CRC использовались нулевые сэмплы : Да
Интерфейс : Установленный внешний ASPI-интерфейс
Выходной формат : Внутренние WAV-операции
Формат сэмплов : 44.100 Гц; 16 бит; стерео
TOC извлечённого CD
Трек | Старт | Длительность | Начальный сектор | Конечный сектор
---------------------------------------------------------------------
1 | 0:00.00 | 6:20.09 | 0 | 28508
2 | 6:20.09 | 7:01.26 | 28509 | 60109
3 | 13:21.35 | 4:53.35 | 60110 | 82119
4 | 18:14.70 | 4:59.19 | 82120 | 104563
5 | 23:14.14 | 5:38.51 | 104564 | 129964
6 | 28:52.65 | 3:49.56 | 129965 | 147195
7 | 32:42.46 | 5:59.19 | 147196 | 174139
8 | 38:41.65 | 4:02.47 | 174140 | 192336
9 | 42:44.37 | 4:40.67 | 192337 | 213403
10 | 47:25.29 | 6:22.27 | 213404 | 242080
11 | 53:47.56 | 4:00.13 | 242081 | 260093
12 | 57:47.69 | 3:52.60 | 260094 | 277553
13 | 61:40.54 | 3:59.25 | 277554 | 295503
14 | 65:40.04 | 4:32.48 | 295504 | 315951
Характеристики диапазона извлечения и сообщения об ошибках
Выбранный диапазон
Имя файла E:\НА-А-А-АШЕ!!!!!!!\Блестящие\1997.Там - только там (Remixes)\Блестящие - Там - только там (Remixes).wav
Пиковый уровень 100.0 %
Качество диапазона 100.0 %
CRC теста 943E39CE
CRC копии 943E39CE
Копирование... OK
Ошибок не произошло
AccurateRip: сводка
Трек 1 нет в базе данных
Трек 2 нет в базе данных
Трек 3 нет в базе данных
Трек 4 нет в базе данных
Трек 5 нет в базе данных
Трек 6 нет в базе данных
Трек 7 нет в базе данных
Трек 8 нет в базе данных
Трек 9 нет в базе данных
Трек 10 нет в базе данных
Трек 11 нет в базе данных
Трек 12 нет в базе данных
Трек 13 нет в базе данных
Трек 14 нет в базе данных
Ни одного трека нет в базе AccurateRip
Конец отчёта
1998. Просто мечты
Просто мечты Трэклист:
01. Облака
02. Ча-ча-ча
03. Неоткрытое письмо
04. Не грусти
05. Твои глаза опять молчат
06. Где же ты, где ?
07. Пам-пам-пам
08. Я собираю сны
09. Блестящие + D.J.«Мама»
10.Где же ты, где ? (Re-Mix D.J.«Мама»)
Back
Лог
Exact Audio Copy V0.99 prebeta 4 from 23. January 2008
Отчёт EAC об извлечении, выполненном 21. марта 2009, 22:04
Блестящие / Просто мечты
Дисковод: ASUS DRW-1814BL Adapter: 1 ID: 0
Режим чтения : Достоверность
Использование точного потока : Да
Отключение кэша аудио : Да
Использование указателей C2 : Нет
Коррекция смещения при чтении : 6
Способность читать области Lead-in и Lead-out : Нет
Заполнение пропущенных сэмплов тишиной : Да
Удаление блоков с тишиной в начале и конце : Нет
При вычислениях CRC использовались нулевые сэмплы : Да
Интерфейс : Установленный внешний ASPI-интерфейс
Выходной формат : Внутренние WAV-операции
Формат сэмплов : 44.100 Гц; 16 бит; стерео
TOC извлечённого CD
Трек | Старт | Длительность | Начальный сектор | Конечный сектор
---------------------------------------------------------------------
1 | 0:00.00 | 4:39.15 | 0 | 20939
2 | 4:39.15 | 3:48.70 | 20940 | 38109
3 | 8:28.10 | 4:46.32 | 38110 | 59591
4 | 13:14.42 | 4:33.63 | 59592 | 80129
5 | 17:48.30 | 3:58.20 | 80130 | 97999
6 | 21:46.50 | 4:07.40 | 98000 | 116564
7 | 25:54.15 | 3:59.55 | 116565 | 134544
8 | 29:53.70 | 4:10.20 | 134545 | 153314
9 | 34:04.15 | 5:51.50 | 153315 | 179689
10 | 39:55.65 | 3:37.70 | 179690 | 196034
Характеристики диапазона извлечения и сообщения об ошибках
Выбранный диапазон
Имя файла E:\НА-А-А-АШЕ!!!!!!!\Блестящие\1998.Просто мечты\Блестящие - Просто мечты.wav
Пиковый уровень 97.7 %
Качество диапазона 100.0 %
CRC теста 4BF9A4D0
CRC копии 4BF9A4D0
Копирование... OK
Ошибок не произошло
AccurateRip: сводка
Трек 1 нет в базе данных
Трек 2 нет в базе данных
Трек 3 нет в базе данных
Трек 4 нет в базе данных
Трек 5 нет в базе данных
Трек 6 нет в базе данных
Трек 7 нет в базе данных
Трек 8 нет в базе данных
Трек 9 нет в базе данных
Трек 10 нет в базе данных
Ни одного трека нет в базе AccurateRip
Конец отчёта
2000. О любви
О любви Трэклист:
01. Чао,Бамбино (3:35)
02. Милый рулевой
03. Колыбельная
04. За осенью придет зима
05. Только ты
06. Джаз и Фанки
07. Огонек
08. Там,за облаками
09. Новый год
10. Милый рулевой (ремикс)
Back
Лог
Exact Audio Copy V0.99 prebeta 4 from 23. January 2008
Отчёт EAC об извлечении, выполненном 23. декабря 2008, 12:49
Блестящие / О любви
Дисковод: ASUS DRW-1814BL Adapter: 3 ID: 0
Режим чтения : Достоверность
Использование точного потока : Да
Отключение кэша аудио : Да
Использование указателей C2 : Нет
Коррекция смещения при чтении : 6
Способность читать области Lead-in и Lead-out : Нет
Заполнение пропущенных сэмплов тишиной : Да
Удаление блоков с тишиной в начале и конце : Нет
При вычислениях CRC использовались нулевые сэмплы : Да
Интерфейс : Встроенный Win32-интерфейс для Win NT/2000
Выходной формат : Внутренние WAV-операции
Формат сэмплов : 44.100 Гц; 16 бит; стерео
TOC извлечённого CD
Трек | Старт | Длительность | Начальный сектор | Конечный сектор
---------------------------------------------------------------------
1 | 0:01.00 | 3:55.47 | 75 | 17746
2 | 3:56.47 | 3:24.33 | 17747 | 33079
3 | 7:21.05 | 3:43.45 | 33080 | 49849
4 | 11:04.50 | 3:23.72 | 49850 | 65146
5 | 14:28.47 | 4:30.08 | 65147 | 85404
6 | 18:58.55 | 4:12.00 | 85405 | 104304
7 | 23:10.55 | 4:27.55 | 104305 | 124384
8 | 27:38.35 | 4:01.30 | 124385 | 142489
9 | 31:39.65 | 3:59.30 | 142490 | 160444
10 | 35:39.20 | 3:38.52 | 160445 | 176846
Характеристики диапазона извлечения и сообщения об ошибках
Выбранный диапазон
Имя файла E:\НА-А-А-АШЕ!!!!!!!\Блестящие\2000.О любви\Блестящие - О любви.wav
Пиковый уровень 100.0 %
Качество диапазона 99.9 %
CRC теста CC33CB64
CRC копии CC33CB64
Копирование... OK
Ошибок не произошло
AccurateRip: сводка
Трек 1 нет в базе данных
Трек 2 нет в базе данных
Трек 3 нет в базе данных
Трек 4 нет в базе данных
Трек 5 нет в базе данных
Трек 6 нет в базе данных
Трек 7 нет в базе данных
Трек 8 нет в базе данных
Трек 9 нет в базе данных
Трек 10 нет в базе данных
Ни одного трека нет в базе AccurateRip
Конец отчёта
2000. Белым снегом
Белым снегом Трэклист:
01. Белым снегом
02. Ча-ча-ча
03. Облака
04. Где же ты,где
05. Чао, Бамбина!
06. Долго тебя ждала
07. Милый рулевой
08. Там, за облаками
09. Там, только там
10. Цветы
11. Туман
12. За осенью придет зима
13. Чао, Бамбина (remix) («Блестящие» и «Дискотека Авария» )
14. Белым снегом (remix)
15. Долго тебя ждала (remix)
Back
Лог
Exact Audio Copy V0.99 prebeta 5 from 4. May 2009
Отчёт EAC об извлечении, выполненном 14. июня 2009, 22:10
Блестящие / Белым снегом
Дисковод: ASUS DRW-1814BL Adapter: 1 ID: 0
Режим чтения : Достоверность
Использование точного потока : Да
Отключение кэша аудио : Да
Использование указателей C2 : Нет
Коррекция смещения при чтении : 6
Способность читать области Lead-in и Lead-out : Нет
Заполнение пропущенных сэмплов тишиной : Да
Удаление блоков с тишиной в начале и конце : Нет
При вычислениях CRC использовались нулевые сэмплы : Да
Интерфейс : Установленный внешний ASPI-интерфейс
Выходной формат : Внутренние WAV-операции
Формат сэмплов : 44.100 Гц; 16 бит; стерео
TOC извлечённого CD
Трек | Старт | Длительность | Начальный сектор | Конечный сектор
---------------------------------------------------------------------
1 | 0:00.00 | 4:22.31 | 0 | 19680
2 | 4:22.31 | 3:48.06 | 19681 | 36786
3 | 8:10.37 | 4:37.06 | 36787 | 57567
4 | 12:47.43 | 4:07.06 | 57568 | 76098
5 | 16:54.49 | 3:54.56 | 76099 | 93704
6 | 20:49.30 | 3:10.06 | 93705 | 107960
7 | 23:59.36 | 3:23.44 | 107961 | 123229
8 | 27:23.05 | 4:02.07 | 123230 | 141386
9 | 31:25.12 | 4:05.06 | 141387 | 159767
10 | 35:30.18 | 3:55.07 | 159768 | 177399
11 | 39:25.25 | 4:00.16 | 177400 | 195415
12 | 43:25.41 | 3:23.19 | 195416 | 210659
13 | 46:48.60 | 4:15.46 | 210660 | 229830
14 | 51:04.31 | 3:53.06 | 229831 | 247311
15 | 54:57.37 | 3:42.65 | 247312 | 264026
Характеристики диапазона извлечения и сообщения об ошибках
Выбранный диапазон
Имя файла E:\НА-А-А-АШЕ!!!!!!!\Блестящие\2000.Белым снегом\Блестящие - Белым снегом.wav
Пиковый уровень 97.8 %
Качество диапазона 100.0 %
CRC теста 44D96EF6
CRC копии 44D96EF6
Копирование... OK
Ошибок не произошло
AccurateRip: сводка
Трек 1 нет в базе данных
Трек 2 нет в базе данных
Трек 3 нет в базе данных
Трек 4 нет в базе данных
Трек 5 нет в базе данных
Трек 6 нет в базе данных
Трек 7 нет в базе данных
Трек 8 нет в базе данных
Трек 9 нет в базе данных
Трек 10 нет в базе данных
Трек 11 нет в базе данных
Трек 12 нет в базе данных
Трек 13 нет в базе данных
Трек 14 нет в базе данных
Трек 15 нет в базе данных
Ни одного трека нет в базе AccurateRip
Конец отчёта
2002. За четыре моря
За четыре моря Трэклист:
01.За четыре моря...
02.А я все летала
03.Журавль
04.Было и прошло
05.Московские окна
06.Хочу ещё
07.Не планета луна
08.Стеклянная любовь
09.Ау-Ау
10.Я и ты
11.Я тебя не люблю
12.За четыре моря... (remix)
13.За четыре моря... (DJ Jeff remix)
14.За четыре моря... (live mix)
15.Облака (remix)
16.За четыре моря (bonus караоке версии)
17.А я все летала (bonus караоке версии)
18.Ау-Ау (bonus караоке версии)
Back
Лог
Exact Audio Copy V0.99 prebeta 5 from 4. May 2009
Отчёт EAC об извлечении, выполненном 14. июня 2009, 23:14
Блестящие / За четыре моря
Дисковод: ASUS DRW-1814BL Adapter: 1 ID: 0
Режим чтения : Достоверность
Использование точного потока : Да
Отключение кэша аудио : Да
Использование указателей C2 : Нет
Коррекция смещения при чтении : 6
Способность читать области Lead-in и Lead-out : Нет
Заполнение пропущенных сэмплов тишиной : Да
Удаление блоков с тишиной в начале и конце : Нет
При вычислениях CRC использовались нулевые сэмплы : Да
Интерфейс : Установленный внешний ASPI-интерфейс
Выходной формат : Внутренние WAV-операции
Формат сэмплов : 44.100 Гц; 16 бит; стерео
TOC извлечённого CD
Трек | Старт | Длительность | Начальный сектор | Конечный сектор
---------------------------------------------------------------------
1 | 0:00.00 | 3:55.17 | 0 | 17641
2 | 3:55.17 | 3:55.40 | 17642 | 35306
3 | 7:50.57 | 3:44.45 | 35307 | 52151
4 | 11:35.27 | 4:26.68 | 52152 | 72169
5 | 16:02.20 | 3:41.18 | 72170 | 88762
6 | 19:43.38 | 4:19.45 | 88763 | 108232
7 | 24:03.08 | 3:49.47 | 108233 | 125454
8 | 27:52.55 | 3:48.53 | 125455 | 142607
9 | 31:41.33 | 3:38.35 | 142608 | 158992
10 | 35:19.68 | 4:28.52 | 158993 | 179144
11 | 39:48.45 | 4:49.23 | 179145 | 200842
12 | 44:37.68 | 4:15.54 | 200843 | 220021
13 | 48:53.47 | 3:41.56 | 220022 | 236652
14 | 52:35.28 | 4:15.16 | 236653 | 255793
15 | 56:50.44 | 5:13.43 | 255794 | 279311
16 | 62:04.12 | 3:55.72 | 279312 | 297008
17 | 66:00.09 | 3:55.51 | 297009 | 314684
18 | 69:55.60 | 3:36.46 | 314685 | 330930
Характеристики диапазона извлечения и сообщения об ошибках
Выбранный диапазон
Имя файла E:\НА-А-А-АШЕ!!!!!!!\Блестящие\2002.За четыре моря\Блестящие - За четыре моря.wav
Пиковый уровень 98.9 %
Качество диапазона 99.9 %
CRC теста 1182B055
CRC копии 1182B055
Копирование... OK
Ошибок не произошло
AccurateRip: сводка
Трек 1 нет в базе данных
Трек 2 нет в базе данных
Трек 3 нет в базе данных
Трек 4 нет в базе данных
Трек 5 нет в базе данных
Трек 6 нет в базе данных
Трек 7 нет в базе данных
Трек 8 нет в базе данных
Трек 9 нет в базе данных
Трек 10 нет в базе данных
Трек 11 нет в базе данных
Трек 12 нет в базе данных
Трек 13 нет в базе данных
Трек 14 нет в базе данных
Трек 15 нет в базе данных
Трек 16 нет в базе данных
Трек 17 нет в базе данных
Трек 18 нет в базе данных
Ни одного трека нет в базе AccurateRip
Конец отчёта
2003. Апельсиновый рай
Апельсиновый рай Трэклист:
01.Апельсиновая песня (3:35)
02.Трус не играет в хоккей
03.Не надо печалится
04.Идет солдат по городу
05.Капля в море
06.Любимый город
07.Московские окна
08.На Тихорецкую состав отправится
09.Там за облаками
10.Огонек
11.Конфетки-бараночки
12.Ожидание
Back
Лог
Exact Audio Copy V0.99 prebeta 4 from 23. January 2008
Отчёт EAC об извлечении, выполненном 23. декабря 2008, 13:26
Блестящие / Апельсиновый рай
Дисковод: ASUS DRW-1814BL Adapter: 3 ID: 0
Режим чтения : Достоверность
Использование точного потока : Да
Отключение кэша аудио : Да
Использование указателей C2 : Нет
Коррекция смещения при чтении : 6
Способность читать области Lead-in и Lead-out : Нет
Заполнение пропущенных сэмплов тишиной : Да
Удаление блоков с тишиной в начале и конце : Нет
При вычислениях CRC использовались нулевые сэмплы : Да
Интерфейс : Встроенный Win32-интерфейс для Win NT/2000
Выходной формат : Внутренние WAV-операции
Формат сэмплов : 44.100 Гц; 16 бит; стерео
TOC извлечённого CD
Трек | Старт | Длительность | Начальный сектор | Конечный сектор
---------------------------------------------------------------------
1 | 0:00.00 | 3:48.08 | 0 | 17107
2 | 3:48.08 | 2:34.06 | 17108 | 28663
3 | 6:22.14 | 3:27.02 | 28664 | 44190
4 | 9:49.16 | 3:34.01 | 44191 | 60241
5 | 13:23.17 | 3:23.39 | 60242 | 75505
6 | 16:46.56 | 3:05.16 | 75506 | 89396
7 | 19:51.72 | 3:44.46 | 89397 | 106242
8 | 23:36.43 | 2:47.71 | 106243 | 118838
9 | 26:24.39 | 4:04.12 | 118839 | 137150
10 | 30:28.51 | 4:28.65 | 137151 | 157315
11 | 34:57.41 | 3:28.55 | 157316 | 172970
12 | 38:26.21 | 2:31.54 | 172971 | 184349
Характеристики диапазона извлечения и сообщения об ошибках
Выбранный диапазон
Имя файла E:\НА-А-А-АШЕ!!!!!!!\Блестящие\2003.Апельсиновый рай\Блестящие - Апельсиновый рай.wav
Пиковый уровень 100.0 %
Качество диапазона 100.0 %
CRC теста 2CD6682C
CRC копии 2CD6682C
Копирование... OK
Ошибок не произошло
AccurateRip: сводка
Трек 1 нет в базе данных
Трек 2 нет в базе данных
Трек 3 нет в базе данных
Трек 4 нет в базе данных
Трек 5 нет в базе данных
Трек 6 нет в базе данных
Трек 7 нет в базе данных
Трек 8 нет в базе данных
Трек 9 нет в базе данных
Трек 10 нет в базе данных
Трек 11 нет в базе данных
Трек 12 нет в базе данных
Ни одного трека нет в базе AccurateRip
Конец отчёта
2005. Восточные сказки
Восточные сказки Трэклист:
01.Восточные сказки (Блестящие и Араш) (3:25)
02.Пальмы парами (4:03)
03.Агент 007 (3:36)
04.Эй,алло ау (3:36)
05.Как звезда (3:32)
06.Поверила (3:43)
07.Капитан дальнего плавания (3:49)
08.Оперуполномоченный (4:32)
09.Брат мой десантник (3:53)
10.Налетели вдруг дожди (3:56)
11.Новогодняя песня (4:08)
12.Venferov & Fedoroff & Блестящие (3:33)
13.Новогодняя песня (remix) (3:56)
14.Апельсиновая песня (remix) (3:30)
Back
Лог
Exact Audio Copy V0.99 prebeta 4 from 23. January 2008
Отчёт EAC об извлечении, выполненном 13. декабря 2008, 17:39
Блестящие / Восточные сказки
Дисковод: ASUS DRW-1814BL Adapter: 3 ID: 0
Режим чтения : Достоверность
Использование точного потока : Да
Отключение кэша аудио : Да
Использование указателей C2 : Нет
Коррекция смещения при чтении : 6
Способность читать области Lead-in и Lead-out : Нет
Заполнение пропущенных сэмплов тишиной : Да
Удаление блоков с тишиной в начале и конце : Нет
При вычислениях CRC использовались нулевые сэмплы : Да
Интерфейс : Встроенный Win32-интерфейс для Win NT/2000
Выходной формат : Внутренние WAV-операции
Формат сэмплов : 44.100 Гц; 16 бит; стерео
TOC извлечённого CD
Трек | Старт | Длительность | Начальный сектор | Конечный сектор
---------------------------------------------------------------------
1 | 0:00.00 | 3:25.11 | 0 | 15385
2 | 3:25.11 | 4:02.45 | 15386 | 33580
3 | 7:27.56 | 3:35.55 | 33581 | 49760
4 | 11:03.36 | 3:35.40 | 49761 | 65925
5 | 14:39.01 | 3:31.58 | 65926 | 81808
6 | 18:10.59 | 3:42.47 | 81809 | 98505
7 | 21:53.31 | 3:49.23 | 98506 | 115703
8 | 25:42.54 | 4:31.40 | 115704 | 136068
9 | 30:14.19 | 3:53.32 | 136069 | 153575
10 | 34:07.51 | 3:55.63 | 153576 | 171263
11 | 38:03.39 | 4:07.62 | 171264 | 189850
12 | 42:11.26 | 3:33.14 | 189851 | 205839
13 | 45:44.40 | 3:56.33 | 205840 | 223572
14 | 49:40.73 | 3:30.24 | 223573 | 239346
Характеристики диапазона извлечения и сообщения об ошибках
Выбранный диапазон
Имя файла E:\НА-А-А-АШЕ!!!!!!!\Блестящие - Восточные сказки\Блестящие - Восточные сказки.wav
Пиковый уровень 98.8 %
Качество диапазона 100.0 %
CRC теста 36FBF65C
CRC копии 36FBF65C
Копирование... OK
Ошибок не произошло
Конец отчёта
2008. Одноклассники
Одноклассники Трэклист:
01. Одноклассники (3:35)
02. Там , только там
03. Цветы
04. Туман
05. Где же ты , где
06. Облака
07. Ча-Ча-Ча
08. Милый Рулевой
09. Чао, Бамбина
10. За осенью придёт зима
11. Белым снегом
12. Ау-Ау
13. А я всё летала
14. Апельсиновая песня
15. За четыре моря
16. Пальмы парами
17. Агент 007
18. Восточная сказка
19. Новогодняя песня
20. Капитан дальнего плавания
Back
Лог
Exact Audio Copy V0.99 prebeta 4 from 23. January 2008
Отчёт EAC об извлечении, выполненном 3. ноября 2008, 15:39
Блестящие / Одноклассники
Дисковод: ASUS DRW-1814BL Adapter: 3 ID: 0
Режим чтения : Достоверность
Использование точного потока : Да
Отключение кэша аудио : Да
Использование указателей C2 : Нет
Коррекция смещения при чтении : 6
Способность читать области Lead-in и Lead-out : Нет
Заполнение пропущенных сэмплов тишиной : Да
Удаление блоков с тишиной в начале и конце : Нет
При вычислениях CRC использовались нулевые сэмплы : Нет
Интерфейс : Встроенный Win32-интерфейс для Win NT/2000
Выходной формат : Внутренние WAV-операции
Формат сэмплов : 44.100 Гц; 16 бит; стерео
TOC извлечённого CD
Трек | Старт | Длительность | Начальный сектор | Конечный сектор
---------------------------------------------------------------------
1 | 0:00.00 | 3:35.21 | 0 | 16145
2 | 3:35.21 | 4:01.33 | 16146 | 34253
3 | 7:36.54 | 3:47.69 | 34254 | 51347
4 | 11:24.48 | 3:57.70 | 51348 | 69192
5 | 15:22.43 | 4:03.49 | 69193 | 87466
6 | 19:26.17 | 4:34.32 | 87467 | 108048
7 | 24:00.49 | 3:44.55 | 108049 | 124903
8 | 27:45.29 | 3:20.32 | 124904 | 139935
9 | 31:05.61 | 3:52.45 | 139936 | 157380
10 | 34:58.31 | 3:20.17 | 157381 | 172397
11 | 38:18.48 | 4:20.42 | 172398 | 191939
12 | 42:39.15 | 3:35.44 | 191940 | 208108
13 | 46:14.59 | 3:52.47 | 208109 | 225555
14 | 50:07.31 | 3:46.05 | 225556 | 242510
15 | 53:53.36 | 3:52.13 | 242511 | 259923
16 | 57:45.49 | 4:01.28 | 259924 | 278026
17 | 61:47.02 | 3:36.16 | 278027 | 294242
18 | 65:23.18 | 3:25.14 | 294243 | 309631
19 | 68:48.32 | 4:07.69 | 309632 | 328225
20 | 72:56.26 | 3:49.27 | 328226 | 345427
Характеристики диапазона извлечения и сообщения об ошибках
Выбранный диапазон
Имя файла E:\Блестящие\Блестящие - Одноклассники\Блестящие - Одноклассники.wav
Пиковый уровень 99.5 %
Качество диапазона 99.9 %
CRC теста 598F69A2
CRC копии 598F69A2
Копирование... OK
Ошибок не произошло
AccurateRip: сводка
Трек 1 нет в базе данных
Трек 2 нет в базе данных
Трек 3 нет в базе данных
Трек 4 нет в базе данных
Трек 5 нет в базе данных
Трек 6 нет в базе данных
Трек 7 нет в базе данных
Трек 8 нет в базе данных
Трек 9 нет в базе данных
Трек 10 нет в базе данных
Трек 11 нет в базе данных
Трек 12 нет в базе данных
Трек 13 нет в базе данных
Трек 14 нет в базе данных
Трек 15 нет в базе данных
Трек 16 нет в базе данных
Трек 17 нет в базе данных
Трек 18 нет в базе данных
Трек 19 нет в базе данных
Трек 20 нет в базе данных
Ни одного трека нет в базе AccurateRip
Конец отчёта
Сольные альбомы бывших участниц группы Жанны Фриске и Ольги Орловой можно скачать здесь
Жанна Фриске - 2 Альбома - 2005 - 2006, FLAC (image+.cue)
Ольга Орлова - 2 Альбома - 2001-2006, FLAC (image+.cue)
[Профиль] [ЛС]
Показать сообщения:    
Ответить на тему

Текущее время: 28-Фев 12:57

Часовой пояс: UTC + 3



Вы не можете начинать темы
Вы не можете отвечать на сообщения
Вы не можете редактировать свои сообщения
Вы не можете удалять свои сообщения
Вы не можете голосовать в опросах
Вы не можете прикреплять файлы к сообщениям
Вы не можете скачивать файлы