[RUS] (Народная песня) Русская дружина - Русские народные песни - 2003, FLAC (image+.cue), lossless

Ответить на тему
 
Автор Сообщение

Bot ®

Стаж: 2 года 8 месяцев

Сообщений: 8

Создавать темы 12-Янв-2017 12:47

[Цитировать]

Русская дружина - Русские народные песни
Жанр: Фольклор
Год выпуска диска: 2003
Производитель диска: Россия
Аудио кодек: FLAC
Тип рипа: image+.cue
Битрейт аудио: lossless
Продолжительность: 62:46
Трэклист:
1. Ой, ты, Россия-матушка
2. Гуляю я, гуляю
3. Зародилась красна ягодка
4. Ах ты, Дуня
5. Уж ты, Зимушка-зима
6. Метелица метет
7. Взойди ясное солнышко
8. Возвращался из похода
9. Во субботу день ненастный
10. Как за Доном, за рекой
11. На серебряной реке
12. Ой, мороз, мороз
13. Ой, при лужку, при лужке
14. Воспой мой жаворонок
15. Как в Бресте
16. Ой, как славно было в городе Киеве
17. Гуляй, Настя, в саду
18. Ой, родимая сторона
19. На горе береза
20. Близко к Дону
21. Пролягала дорожка
Доп. информация:
Записано в 1992 году
Это интересно:
скрытый текст
РНП "Зародилась красна ягодка" вариация на тему РНП "Зародилась сильна ягодка" (Старинной лирической песни Донских казаков) как обработка так и оригинал являются, на мой взгляд, одной из лучших лирических народных песен России.
Текст РНП "Зародилась сильна ягодка"
Зародилась сильна ягодка во сыром она бору только бору,
Заблудилась красна девица во темном лесу только лесу.
Приблудилась красна девица ко быстрой она реке.
Выходила красна девица на крутенький бережок.
Расстилала бел шелковенький платок.
Выставляла водочки крепкий полуштоф.
На закуску выкладала бел рассыпчатый перог.
На забаву доставала яблычкав спеленьких пяток.
Закричала красная шельма девчонычка своим звонким голоском,
Перявощик, а ты перявощчик, переправь меня, девчонычку,
на ту сторону реки.
Там в зеленом хуторочке, что на самом на ярочке
Мои миленочек живет.
Перявощик, а ты перявощик, ты скажи мне девчоначке,
Что возьмешь за перявоз?
Ничего мне да не надобно, красная моя девчонычка
Пойди замуж, а ты за меня.
Пойду, пойду за тебя да, красная девчонычка,
Если батя, а он благословит.
Ах ты, Дуня тоже обработка:
«Дуня»
Где ж ты Дуня, Дуня белыя (еее)
Где ж ты Дуня, Дуня белыя
Ай, на что худо Дуня сделала
На что худо Дуня сделала(еее)
На что худо Дуня сделала
Ай, любить Ваню Дуня бросила...
Ай, любить Ваню Дуня бросила (еее)
Любить Ваню Дуня бросила (еее)
Ай, бросила покинула
Ай, бросила покинула (еее)
Бросила покинула (еее)
Ай, да и как его да любить
Ай, да и как его да любить(ООО)
Ай, да и как его да любить (еее)
Сижу вижу Ваню пьяныва
Ай, сижу вижу Ваню пьяныва (еее)
Сижу вижу Ваню пьяныва (еее)
Да во царевом новом кабаке
Ай, во царевом новом кабаке (еее)
Во царевом новом кабаке(еее)
Ай, во зеленом сюртуке
Ай, во зеленом сюртуке (еее)
Во зеленом сюртуке (еее)
Ай, он за стенкою да сидит
Ай, он за стенкою да сидит (ООО)
он за стенкою да сидит
Зеляное Ваня вино пьет
Ай, зеляное Ваня вино пьет (еее)
Зеляное Ваня вино пьет (еее)
Ай, понапрасну Ваня жену бьет…
И песни, сопровождавшей обряд "пускания кораблей", исполнявшейся и на свадьбах. В станице Старогладковской пели "Селезень, мой селезень" (селезень невеселый: утица подстрелена; молодец невеселый: девица просватана за другого). Текста к сожалению не нашел.
LOG:
скрытый текст
Exact Audio Copy V0.99 prebeta 4 from 23. January 2008
Отчёт EAC об извлечении, выполненном 24. декабря 2008, 16:20
Unknown Artist / Unknown Title
Дисковод: ASUS DRW-1608P3S Adapter: 0 ID: 1
Режим чтения : Достоверность
Использование точного потока : Да
Отключение кэша аудио : Да
Использование указателей C2 : Нет
Коррекция смещения при чтении : 48
Способность читать области Lead-in и Lead-out : Нет
Заполнение пропущенных сэмплов тишиной : Да
Удаление блоков с тишиной в начале и конце : Нет
При вычислениях CRC использовались нулевые сэмплы : Нет
Интерфейс : Установленный внешний ASPI-интерфейс
Выходной формат : Пользовательский кодировщик
Выбранный битрейт : 768 kBit/s
Качество : Высокий
Добавление ID3-тэга : Нет
Утилита сжатия : D:\Program Files\Exact Audio Copy\FLAC\FLAC.EXE
Дополнительные параметры : -6 -V -T "ARTIST=%a" -T "TITLE=%t" -T "ALBUM=%g" -T "DATE=%y" -T "TRACKNUMBER=%n" -T "GENRE=%m" -T "COMMENT=%e" %s -o %d
TOC извлечённого CD
Трек | Старт | Длительность | Начальный сектор | Конечный сектор
---------------------------------------------------------------------
1 | 0:00.00 | 2:17.02 | 0 | 10276
2 | 2:17.02 | 2:33.68 | 10277 | 21819
3 | 4:50.70 | 3:42.00 | 21820 | 38469
4 | 8:32.70 | 7:06.62 | 38470 | 70481
5 | 15:39.57 | 4:37.15 | 70482 | 91271
6 | 20:16.72 | 2:40.73 | 91272 | 103344
7 | 22:57.70 | 3:31.02 | 103345 | 119171
8 | 26:28.72 | 0:56.13 | 119172 | 123384
9 | 27:25.10 | 3:18.60 | 123385 | 138294
10 | 30:43.70 | 2:27.72 | 138295 | 149391
11 | 33:11.67 | 2:58.03 | 149392 | 162744
12 | 36:09.70 | 1:56.02 | 162745 | 171446
13 | 38:05.72 | 2:50.05 | 171447 | 184201
14 | 40:56.02 | 3:39.03 | 184202 | 200629
15 | 44:35.05 | 1:29.72 | 200630 | 207376
16 | 46:05.02 | 4:41.70 | 207377 | 228521
17 | 50:46.72 | 2:08.08 | 228522 | 238129
18 | 52:55.05 | 4:00.67 | 238130 | 256196
19 | 56:55.72 | 2:09.05 | 256197 | 265876
20 | 59:05.02 | 2:17.70 | 265877 | 276221
21 | 61:22.72 | 2:43.38 | 276222 | 288484
Характеристики диапазона извлечения и сообщения об ошибках
Выбранный диапазон
Имя файла D:\TorRu\Russian Druzhina Ensemble\Unknown Artist - Unknown Title.wav
Пиковый уровень 51.6 %
Качество диапазона 100.0 %
CRC копии EF5EB478
Копирование... OK
Ошибок не произошло
AccurateRip: сводка
Трек 1 нет в базе данных
Трек 2 нет в базе данных
Трек 3 нет в базе данных
Трек 4 нет в базе данных
Трек 5 нет в базе данных
Трек 6 нет в базе данных
Трек 7 нет в базе данных
Трек 8 нет в базе данных
Трек 9 нет в базе данных
Трек 10 нет в базе данных
Трек 11 нет в базе данных
Трек 12 нет в базе данных
Трек 13 нет в базе данных
Трек 14 нет в базе данных
Трек 15 нет в базе данных
Трек 16 нет в базе данных
Трек 17 нет в базе данных
Трек 18 нет в базе данных
Трек 19 нет в базе данных
Трек 20 нет в базе данных
Трек 21 нет в базе данных
Ни одного трека нет в базе AccurateRip
Конец отчёта
[Профиль] [ЛС]
Показать сообщения:    
Ответить на тему

Текущее время: 20-Авг 18:26

Часовой пояс: UTC + 3



Вы не можете начинать темы
Вы не можете отвечать на сообщения
Вы не можете редактировать свои сообщения
Вы не можете удалять свои сообщения
Вы не можете голосовать в опросах
Вы не можете прикреплять файлы к сообщениям
Вы не можете скачивать файлы