Сегодня идет свободное скачивание без начисления Download

(Chorus/Classical) Libera - Angel voices - 2006, FLAC (tracks+.cue), lossless

Ответить на тему
 
Автор Сообщение

Bot ®

Стаж: 3 года 6 месяцев

Сообщений: 5

Создавать темы 12-Янв-2017 13:02

[Цитировать]

Libera - Angel voices
Страна: England
Жанр: Chorus/Classical
Год выпуска: 2006
Формат: FLAC (tracks+.cue)
Битрейт аудио: lossless
Продолжительность: 00:59:00
Наличие сканов в содержимом раздачи: да
Трэклист:
01 Far Away
02 Sanctus (Based on Canon by Pachelbel)
03 Ave Maria
04 Going Home
05 Be Still My Soul
06 Salva Me
07 I Vow to Thee, My Country
08 Voca Me
09 Always With You
10 We Are The Lost
11 I Am The Day
12 Recordare
13 Abide With Me
14 Silent Night
15 Going Home (Radio edit)
Остальные раздачи в lossless:
1999 Libera
2001 Luminosa
2004 Free
2005 Visions
2008 New dawn
Видеоклипы Либеры
Отчёт EAC
EAC extraction logfile from 17. November 2006, 21:30 for CD
Libera / Angel Voices
Used drive : IDE-DVD DROM6216 Adapter: 0 ID: 1
Read mode : Secure with NO C2, accurate stream, disable cache
Read offset correction : 738
Overread into Lead-In and Lead-Out : No
Used output format : C:\Program Files\FLAC\flac.exe (User Defined Encoder)
Additional command line options : -T "artist=%a" -T "title=%t" -T "album=%g" -T "date=%y" -T "tracknumber=%n" -T "genre=%m" %s
Other options :
Fill up missing offset samples with silence : Yes
Delete leading and trailing silent blocks : No
Native Win32 interface for Win NT & 2000
Track 1
Filename D:\Flac Rips\Libera - Angel Voices 2006\01 - Far Away.wav
Pre-gap length 0:00:02.00
Peak level 95.6 %
Track quality 100.0 %
Test CRC 81B92152
Copy CRC 81B92152
Copy OK
Track 2
Filename D:\Flac Rips\Libera - Angel Voices 2006\02 - Sanctus.wav
Peak level 95.5 %
Track quality 100.0 %
Test CRC DDB2A500
Copy CRC DDB2A500
Copy OK
Track 3
Filename D:\Flac Rips\Libera - Angel Voices 2006\03 - Ave Maria.wav
Peak level 99.0 %
Track quality 100.0 %
Test CRC 5238BE85
Copy CRC 5238BE85
Copy OK
Track 4
Filename D:\Flac Rips\Libera - Angel Voices 2006\04 - Going Home (Radio Edit).wav
Peak level 67.1 %
Track quality 100.0 %
Test CRC 14DF6189
Copy CRC 14DF6189
Copy OK
Track 5
Filename D:\Flac Rips\Libera - Angel Voices 2006\05 - Be Still My Soul.wav
Pre-gap length 0:00:00.16
Peak level 99.2 %
Track quality 100.0 %
Test CRC C5CD8A5B
Copy CRC C5CD8A5B
Copy OK
Track 6
Filename D:\Flac Rips\Libera - Angel Voices 2006\06 - Salva Me.wav
Peak level 99.3 %
Track quality 100.0 %
Test CRC DE24C0A0
Copy CRC DE24C0A0
Copy OK
Track 7
Filename D:\Flac Rips\Libera - Angel Voices 2006\07 - I Vow To Thee, My Country.wav
Pre-gap length 0:00:01.10
Peak level 98.6 %
Track quality 100.0 %
Test CRC C66D1209
Copy CRC C66D1209
Copy OK
Track 8
Filename D:\Flac Rips\Libera - Angel Voices 2006\08 - Voca Me.wav
Peak level 95.5 %
Track quality 100.0 %
Test CRC 20D02670
Copy CRC 20D02670
Copy OK
Track 9
Filename D:\Flac Rips\Libera - Angel Voices 2006\09 - Always With You.wav
Peak level 96.6 %
Track quality 100.0 %
Test CRC FB081E4B
Copy CRC FB081E4B
Copy OK
Track 10
Filename D:\Flac Rips\Libera - Angel Voices 2006\10 - We Are The Lost.wav
Pre-gap length 0:00:01.42
Peak level 93.9 %
Track quality 100.0 %
Test CRC F68A20DB
Copy CRC F68A20DB
Copy OK
Track 11
Filename D:\Flac Rips\Libera - Angel Voices 2006\11 - I Am The Day.wav
Peak level 100.0 %
Track quality 100.0 %
Test CRC 0B3B48C7
Copy CRC 0B3B48C7
Copy OK
Track 12
Filename D:\Flac Rips\Libera - Angel Voices 2006\12 - Recordare.wav
Pre-gap length 0:00:00.28
Peak level 93.9 %
Track quality 100.0 %
Test CRC F997A7F9
Copy CRC F997A7F9
Copy OK
Track 13
Filename D:\Flac Rips\Libera - Angel Voices 2006\13 - Abide With Me.wav
Peak level 92.1 %
Track quality 100.0 %
Test CRC E6389F20
Copy CRC E6389F20
Copy OK
Track 14
Filename D:\Flac Rips\Libera - Angel Voices 2006\14 - Silent Night.wav
Peak level 96.1 %
Track quality 100.0 %
Test CRC E62C8428
Copy CRC E62C8428
Copy OK
Track 15
Filename D:\Flac Rips\Libera - Angel Voices 2006\15 - Going Home.wav
Peak level 67.5 %
Track quality 99.9 %
Test CRC BE4E7320
Copy CRC BE4E7320
Copy OK
No errors occured
End of status report
[Профиль] [ЛС]
Показать сообщения:    
Ответить на тему

Текущее время: 24-Ноя 23:18

Часовой пояс: UTC + 3



Вы не можете начинать темы
Вы не можете отвечать на сообщения
Вы не можете редактировать свои сообщения
Вы не можете удалять свои сообщения
Вы не можете голосовать в опросах
Вы не можете прикреплять файлы к сообщениям
Вы не можете скачивать файлы