Сегодня идет свободное скачивание без начисления Download

(Chorus/Classical) Libera - Luminosa - 2001, FLAC (tracks+.cue), lossless

Ответить на тему
 
Автор Сообщение

Bot ®

Стаж: 3 года

Сообщений: 2

Создавать темы 12-Янв-2017 13:17

[Цитировать]

Libera - Luminosa
Страна: England
Жанр: Chorus/Classical
Год выпуска: 2001
Формат: FLAC (tracks+.cue)
Битрейт аудио: lossless
Продолжительность: 00:52:00
Источник: what.cd (davidos)
Наличие сканов в содержимом раздачи: да
Трэклист:
01 Vespera
02 Ave Maria
03 Lacrymosa
04 Sacris Solemnis
05 Attendite
06 Gaudete
07 Silencium
08 Semele
09 Luminosa
10 Stabat
11 Veni Sancte
12 Sanstus II
log
X Lossless Decoder version 20100302 (116.6)
XLD extraction logfile from 2010-04-04 12:24:40 +0200
Libera / Luminosa
Used drive : MATSHITA DVD-R UJ-868 (revision KB19)
Use cdparanoia mode : YES (CDParanoia III 10.2 engine)
Disable audio cache : OK for the drive with cache less than 2750KB
Make use of C2 pointers : NO
Read offset correction : 102
Max retry count : 100
TOC of the extracted CD
Track | Start | Length | Start sector | End sector
---------------------------------------------------------
1 | 00:00:00 | 03:53:32 | 0 | 17506
2 | 03:53:32 | 04:24:40 | 17507 | 37346
3 | 08:17:72 | 03:09:59 | 37347 | 51580
4 | 11:27:56 | 04:03:00 | 51581 | 69805
5 | 15:30:56 | 04:15:65 | 69806 | 88995
6 | 19:46:46 | 02:48:73 | 88996 | 101668
7 | 22:35:44 | 05:03:07 | 101669 | 124400
8 | 27:38:51 | 04:17:05 | 124401 | 143680
9 | 31:55:56 | 05:41:48 | 143681 | 169303
10 | 37:37:29 | 04:50:00 | 169304 | 191053
11 | 42:27:29 | 06:04:25 | 191054 | 218378
12 | 48:31:54 | 03:47:21 | 218379 | 235424
Track 01
Filename : /My Music/Rips/01 - Vespera.flac
Pre-gap length : 00:02:00
CRC32 hash (test run) : 13B69AED
CRC32 hash : 13B69AED
CRC32 hash (skip zero) : E76E809B
AccurateRip signature : CBEF85F0
->Accurately ripped! (confidence 6)
Statistics
Read error : 0
Skipped (treated as error) : 0
Edge jitter error (maybe fixed) : 0
Atom jitter error (maybe fixed) : 0
Drift error (maybe fixed) : 0
Dropped bytes error (maybe fixed) : 0
Duplicated bytes error (maybe fixed) : 0
Inconsistency in error sectors : 0
Track 02
Filename : /My Music/Rips/02 - Ave Maria.flac
Pre-gap length : 00:01:50
CRC32 hash (test run) : 475F4759
CRC32 hash : 475F4759
CRC32 hash (skip zero) : 365D778F
AccurateRip signature : 2B8F070E
->Accurately ripped! (confidence 6)
Statistics
Read error : 0
Skipped (treated as error) : 0
Edge jitter error (maybe fixed) : 0
Atom jitter error (maybe fixed) : 0
Drift error (maybe fixed) : 0
Dropped bytes error (maybe fixed) : 0
Duplicated bytes error (maybe fixed) : 0
Inconsistency in error sectors : 0
Track 03
Filename : /My Music/Rips/03 - Lacrymosa.flac
Pre-gap length : 00:01:50
CRC32 hash (test run) : CE70CFE8
CRC32 hash : CE70CFE8
CRC32 hash (skip zero) : 416E5203
AccurateRip signature : FBB5F018
->Accurately ripped! (confidence 6)
Statistics
Read error : 0
Skipped (treated as error) : 0
Edge jitter error (maybe fixed) : 0
Atom jitter error (maybe fixed) : 0
Drift error (maybe fixed) : 0
Dropped bytes error (maybe fixed) : 0
Duplicated bytes error (maybe fixed) : 0
Inconsistency in error sectors : 0
Track 04
Filename : /My Music/Rips/04 - Sacris Solemnis.flac
Pre-gap length : 00:01:50
CRC32 hash (test run) : C70C3C02
CRC32 hash : C70C3C02
CRC32 hash (skip zero) : CA5DDDFD
AccurateRip signature : F1E4822B
->Accurately ripped! (confidence 6)
Statistics
Read error : 0
Skipped (treated as error) : 0
Edge jitter error (maybe fixed) : 0
Atom jitter error (maybe fixed) : 0
Drift error (maybe fixed) : 0
Dropped bytes error (maybe fixed) : 0
Duplicated bytes error (maybe fixed) : 0
Inconsistency in error sectors : 0
Track 05
Filename : /My Music/Rips/05 - Attendite.flac
Pre-gap length : 00:01:50
CRC32 hash (test run) : 6EF2D788
CRC32 hash : 6EF2D788
CRC32 hash (skip zero) : 9AB8468D
AccurateRip signature : 622BE317
->Accurately ripped! (confidence 6)
Statistics
Read error : 0
Skipped (treated as error) : 0
Edge jitter error (maybe fixed) : 0
Atom jitter error (maybe fixed) : 0
Drift error (maybe fixed) : 0
Dropped bytes error (maybe fixed) : 0
Duplicated bytes error (maybe fixed) : 0
Inconsistency in error sectors : 0
Track 06
Filename : /My Music/Rips/06 - Gaudete.flac
Pre-gap length : 00:01:50
CRC32 hash (test run) : B08897ED
CRC32 hash : B08897ED
CRC32 hash (skip zero) : F594EBE9
AccurateRip signature : 25F13C34
->Accurately ripped! (confidence 6)
Statistics
Read error : 0
Skipped (treated as error) : 0
Edge jitter error (maybe fixed) : 0
Atom jitter error (maybe fixed) : 0
Drift error (maybe fixed) : 0
Dropped bytes error (maybe fixed) : 0
Duplicated bytes error (maybe fixed) : 0
Inconsistency in error sectors : 0
Track 07
Filename : /My Music/Rips/07 - Silencium.flac
Pre-gap length : 00:01:50
CRC32 hash (test run) : E87FB40D
CRC32 hash : E87FB40D
CRC32 hash (skip zero) : E4D143BD
AccurateRip signature : 6167C5D4
->Accurately ripped! (confidence 6)
Statistics
Read error : 0
Skipped (treated as error) : 0
Edge jitter error (maybe fixed) : 0
Atom jitter error (maybe fixed) : 0
Drift error (maybe fixed) : 0
Dropped bytes error (maybe fixed) : 0
Duplicated bytes error (maybe fixed) : 0
Inconsistency in error sectors : 0
Track 08
Filename : /My Music/Rips/08 - Semele.flac
Pre-gap length : 00:01:50
CRC32 hash (test run) : 469F70DA
CRC32 hash : 469F70DA
CRC32 hash (skip zero) : EBE71565
AccurateRip signature : 2E113440
->Accurately ripped! (confidence 6)
Statistics
Read error : 0
Skipped (treated as error) : 0
Edge jitter error (maybe fixed) : 0
Atom jitter error (maybe fixed) : 0
Drift error (maybe fixed) : 0
Dropped bytes error (maybe fixed) : 0
Duplicated bytes error (maybe fixed) : 0
Inconsistency in error sectors : 0
Track 09
Filename : /My Music/Rips/09 - Luminosa.flac
Pre-gap length : 00:01:50
CRC32 hash (test run) : F312DBA3
CRC32 hash : F312DBA3
CRC32 hash (skip zero) : 52FABA04
AccurateRip signature : F8C14E74
->Accurately ripped! (confidence 6)
Statistics
Read error : 0
Skipped (treated as error) : 0
Edge jitter error (maybe fixed) : 0
Atom jitter error (maybe fixed) : 0
Drift error (maybe fixed) : 0
Dropped bytes error (maybe fixed) : 0
Duplicated bytes error (maybe fixed) : 0
Inconsistency in error sectors : 0
Track 10
Filename : /My Music/Rips/10 - Stabat.flac
Pre-gap length : 00:01:50
CRC32 hash (test run) : A142D095
CRC32 hash : A142D095
CRC32 hash (skip zero) : 7E5C525F
AccurateRip signature : 837C57A5
->Accurately ripped! (confidence 6)
Statistics
Read error : 0
Skipped (treated as error) : 0
Edge jitter error (maybe fixed) : 0
Atom jitter error (maybe fixed) : 0
Drift error (maybe fixed) : 0
Dropped bytes error (maybe fixed) : 0
Duplicated bytes error (maybe fixed) : 0
Inconsistency in error sectors : 0
Track 11
Filename : /My Music/Rips/11 - Veni Sancte.flac
Pre-gap length : 00:01:50
CRC32 hash (test run) : 64016620
CRC32 hash : 64016620
CRC32 hash (skip zero) : 5C1DB8F2
AccurateRip signature : 5D6FAFB4
->Accurately ripped! (confidence 6)
Statistics
Read error : 0
Skipped (treated as error) : 0
Edge jitter error (maybe fixed) : 0
Atom jitter error (maybe fixed) : 0
Drift error (maybe fixed) : 0
Dropped bytes error (maybe fixed) : 0
Duplicated bytes error (maybe fixed) : 0
Inconsistency in error sectors : 0
Track 12
Filename : /My Music/Rips/12 - Sanctus II.flac
Pre-gap length : 00:01:50
CRC32 hash (test run) : 82A8BE73
CRC32 hash : 82A8BE73
CRC32 hash (skip zero) : FC5D462B
AccurateRip signature : EB26611C
->Accurately ripped! (confidence 5)
Statistics
Read error : 0
Skipped (treated as error) : 0
Edge jitter error (maybe fixed) : 0
Atom jitter error (maybe fixed) : 0
Drift error (maybe fixed) : 0
Dropped bytes error (maybe fixed) : 0
Duplicated bytes error (maybe fixed) : 0
Inconsistency in error sectors : 0
No errors occurred
End of status report
.cue
TITLE "Luminosa"
PERFORMER "Libera"
REM GENRE "Chorus"
REM DATE 2001
FILE "01 - Vespera.wav" WAVE
TRACK 01 AUDIO
TITLE "Vespera"
ISRC FRZ200100546
INDEX 01 00:00:00
TRACK 02 AUDIO
TITLE "Ave Maria"
ISRC FRZ200100547
INDEX 00 03:51:57
FILE "02 - Ave Maria.wav" WAVE
INDEX 01 00:00:00
TRACK 03 AUDIO
TITLE "Lacrymosa"
ISRC FRZ200100548
INDEX 00 04:22:65
FILE "03 - Lacrymosa.wav" WAVE
INDEX 01 00:00:00
TRACK 04 AUDIO
TITLE "Sacris Solemnis"
ISRC FRZ200100549
INDEX 00 03:08:09
FILE "04 - Sacris Solemnis.wav" WAVE
INDEX 01 00:00:00
TRACK 05 AUDIO
TITLE "Attendite"
ISRC FRZ200100550
INDEX 00 04:01:25
FILE "05 - Attendite.wav" WAVE
INDEX 01 00:00:00
TRACK 06 AUDIO
TITLE "Gaudete"
ISRC FRZ200100551
INDEX 00 04:14:15
FILE "06 - Gaudete.wav" WAVE
INDEX 01 00:00:00
TRACK 07 AUDIO
TITLE "Silencium"
ISRC FRZ200100552
INDEX 00 02:47:23
FILE "07 - Silencium.wav" WAVE
INDEX 01 00:00:00
TRACK 08 AUDIO
TITLE "Semele"
ISRC FRZ200100553
INDEX 00 05:01:32
FILE "08 - Semele.wav" WAVE
INDEX 01 00:00:00
TRACK 09 AUDIO
TITLE "Luminosa"
ISRC FRZ200100554
INDEX 00 04:15:30
FILE "09 - Luminosa.wav" WAVE
INDEX 01 00:00:00
TRACK 10 AUDIO
TITLE "Stabat"
ISRC FRZ200100555
INDEX 00 05:39:73
FILE "10 - Stabat.wav" WAVE
INDEX 01 00:00:00
TRACK 11 AUDIO
TITLE "Veni Sancte"
ISRC FRZ200100556
INDEX 00 04:48:25
FILE "11 - Veni Sancte.wav" WAVE
INDEX 01 00:00:00
TRACK 12 AUDIO
TITLE "Sanctus II"
ISRC FRZ200100557
INDEX 00 06:02:50
FILE "12 - Sanctus II.wav" WAVE
INDEX 01 00:00:00
Лог Audiochecker
AUDIOCHECKER v2.0 beta (build 457) - by Dester - opdester@freemail.hu
~~~~~~~~~~~~~~~~~~~~~~~~~~~~~~~~~~
Started at: суббота, 02. 10. 2010. - 23:41.10
12 files found
01 -===- E:\ЗАПИСЬЬЬЬЬЬЬЬЬЬЬЬЬЬЬЬЬЬЬЬЬЬЬЬЬЬЬЬЬЬЬЬЬЬЬЬЬЬЬЬЬ\libera\Music\2001 - Luminosa\01 - Vespera.flac
Extracted successfully
Conclusion: this track is CDDA with probability 100%
Tempfile successfully deleted.
02 -===- E:\ЗАПИСЬЬЬЬЬЬЬЬЬЬЬЬЬЬЬЬЬЬЬЬЬЬЬЬЬЬЬЬЬЬЬЬЬЬЬЬЬЬЬЬЬ\libera\Music\2001 - Luminosa\02 - Ave Maria.flac
Extracted successfully
Conclusion: this track is CDDA with probability 100%
Tempfile successfully deleted.
03 -===- E:\ЗАПИСЬЬЬЬЬЬЬЬЬЬЬЬЬЬЬЬЬЬЬЬЬЬЬЬЬЬЬЬЬЬЬЬЬЬЬЬЬЬЬЬЬ\libera\Music\2001 - Luminosa\03 - Lacrymosa.flac
Extracted successfully
Conclusion: this track is CDDA with probability 100%
Tempfile successfully deleted.
04 -===- E:\ЗАПИСЬЬЬЬЬЬЬЬЬЬЬЬЬЬЬЬЬЬЬЬЬЬЬЬЬЬЬЬЬЬЬЬЬЬЬЬЬЬЬЬЬ\libera\Music\2001 - Luminosa\04 - Sacris Solemnis.flac
Extracted successfully
Conclusion: this track is CDDA with probability 100%
Tempfile successfully deleted.
05 -===- E:\ЗАПИСЬЬЬЬЬЬЬЬЬЬЬЬЬЬЬЬЬЬЬЬЬЬЬЬЬЬЬЬЬЬЬЬЬЬЬЬЬЬЬЬЬ\libera\Music\2001 - Luminosa\05 - Attendite.flac
Extracted successfully
Conclusion: this track is CDDA with probability 100%
Tempfile successfully deleted.
06 -===- E:\ЗАПИСЬЬЬЬЬЬЬЬЬЬЬЬЬЬЬЬЬЬЬЬЬЬЬЬЬЬЬЬЬЬЬЬЬЬЬЬЬЬЬЬЬ\libera\Music\2001 - Luminosa\06 - Gaudete.flac
Extracted successfully
Conclusion: this track is CDDA with probability 100%
Tempfile successfully deleted.
07 -===- E:\ЗАПИСЬЬЬЬЬЬЬЬЬЬЬЬЬЬЬЬЬЬЬЬЬЬЬЬЬЬЬЬЬЬЬЬЬЬЬЬЬЬЬЬЬ\libera\Music\2001 - Luminosa\07 - Silencium.flac
Extracted successfully
Conclusion: this track is CDDA with probability 100%
Tempfile successfully deleted.
08 -===- E:\ЗАПИСЬЬЬЬЬЬЬЬЬЬЬЬЬЬЬЬЬЬЬЬЬЬЬЬЬЬЬЬЬЬЬЬЬЬЬЬЬЬЬЬЬ\libera\Music\2001 - Luminosa\08 - Semele.flac
Extracted successfully
Conclusion: this track is CDDA with probability 100%
Tempfile successfully deleted.
09 -===- E:\ЗАПИСЬЬЬЬЬЬЬЬЬЬЬЬЬЬЬЬЬЬЬЬЬЬЬЬЬЬЬЬЬЬЬЬЬЬЬЬЬЬЬЬЬ\libera\Music\2001 - Luminosa\09 - Luminosa.flac
Extracted successfully
Conclusion: this track is CDDA with probability 100%
Tempfile successfully deleted.
10 -===- E:\ЗАПИСЬЬЬЬЬЬЬЬЬЬЬЬЬЬЬЬЬЬЬЬЬЬЬЬЬЬЬЬЬЬЬЬЬЬЬЬЬЬЬЬЬ\libera\Music\2001 - Luminosa\10 - Stabat.flac
Extracted successfully
Conclusion: this track is CDDA with probability 100%
Tempfile successfully deleted.
11 -===- E:\ЗАПИСЬЬЬЬЬЬЬЬЬЬЬЬЬЬЬЬЬЬЬЬЬЬЬЬЬЬЬЬЬЬЬЬЬЬЬЬЬЬЬЬЬ\libera\Music\2001 - Luminosa\11 - Veni Sancte.flac
Extracted successfully
Conclusion: this track is CDDA with probability 100%
Tempfile successfully deleted.
12 -===- E:\ЗАПИСЬЬЬЬЬЬЬЬЬЬЬЬЬЬЬЬЬЬЬЬЬЬЬЬЬЬЬЬЬЬЬЬЬЬЬЬЬЬЬЬЬ\libera\Music\2001 - Luminosa\12 - Sanctus II.flac
Extracted successfully
Conclusion: this track is CDDA with probability 100%
Tempfile successfully deleted.
Finished at: суббота, 02. 10. 2010. - 23:56.23 (operation time: 0:15.12)
Остальные раздачи в lossless:
1999 Libera
2004 Free
2005 Visions
2006 Angel voices
2008 New dawn
Видеоклипы Либеры
[Профиль] [ЛС]
Показать сообщения:    
Ответить на тему

Текущее время: 26-Мар 00:47

Часовой пояс: UTC + 3



Вы не можете начинать темы
Вы не можете отвечать на сообщения
Вы не можете редактировать свои сообщения
Вы не можете удалять свои сообщения
Вы не можете голосовать в опросах
Вы не можете прикреплять файлы к сообщениям
Вы не можете скачивать файлы