Сегодня идет свободное скачивание без начисления Download

Умисё / Kenko Zenrakei Suieibu Umisho (Сотомэ Койтиро) [TV] [13 из 13] [без хардсаба] [RUS(int),JAP] [2007, комедия, романтика, эротика, TVRip] [HWP]

Ответить на тему
 
Автор Сообщение

Bot ®

Стаж: 1 год 10 месяцев

Сообщений: 6

Создавать темы 12-Янв-2017 14:02

[Цитировать]

Умисё / Kenko Zenrakei Suieibu Umisho
Год выпуска: 2007
Страна: Япония
Жанр: комедия, романтика, эротика
Продолжительность: 13 по 25 мин.
Перевод: одноголосый
Хардсаб: Нет
Режиссер: Сотомэ Койтиро
Описание: Окимура Канаме, менеджер команды по плаванью платной школы Umineko Shougyou High, с детства боится залезать в воду, при этом его безумно тянет плавать. Но он боится...боится не утонуть, ни самой воды, а боится всякой не хорошей гадости подводной...к примеру русалок.
И вот в один погожий майский денёк к ним в школу переводится весёлая беззаботная дувчушка Нагаока Амуро, при этом обалденно плавает да ещё и красотка с какого ракурсу не погляди. И что то в ней есть ну очень знакомое и нечто загадочное...
Озвучивание: Cuba77
Перевод на русский: Sauron13

Названия эпизодов:
01. Chura Umi!
02. I... might be... Interested...
03. I'll show you!
04. I'm going to show you
05. Do you want mine, too?
06. No !
07. Curse
08. Take a good look
09. Help me forget...
10. Breast Massage?
11. Could it be...
12. Oma Oma ~
13. Mermaid

Качество: TVrip
Формат: AVI
Видео кодек: DivX
Аудио кодек: MP3
Видео: 704 x 396, 23.976 fps, 1 062 Kbps
Аудио: RU - VO, stereo, 44100 Hz, 128 kbps; JP - stereo, 44100 Hz, 128 kbps
Скриншоты
Отчет MI
General
Complete name : F:\____\Kenko_Zenrakei_Suieibu_Umisho_[torrents.ru]\Kenko_Zenrakei_Suieibu_Umisho_[01]_[ru_jp]_[AnimeReactor_Ru].avi
Format : AVI
Format/Info : Audio Video Interleave
File size : 240 MiB
Duration : 25mn 9s
Overall bit rate : 1 332 Kbps
Writing application : VirtualDubMod 1.5.10.2 (build 2540/release)
Writing library : VirtualDubMod build 2540/release
Video
ID : 0
Format : MPEG-4 Visual
Format settings, BVOP : No
Format settings, QPel : No
Format settings, GMC : No warppoints
Format settings, Matrix : Default (H.263)
Codec ID : DX50
Codec ID/Hint : DivX 5
Duration : 25mn 9s
Bit rate : 1 062 Kbps
Width : 704 pixels
Height : 396 pixels
Display aspect ratio : 16:9
Frame rate : 23.976 fps
Color space : YUV
Chroma subsampling : 4:2:0
Bit depth : 8 bits
Scan type : Progressive
Compression mode : Lossy
Bits/(Pixel*Frame) : 0.159
Stream size : 191 MiB (80%)
Writing library : DivX 6.5.1 (UTC 2007-03)
Audio #1
ID : 1
Format : MPEG Audio
Format version : Version 1
Format profile : Layer 3
Codec ID : 55
Codec ID/Hint : MP3
Duration : 25mn 9s
Bit rate mode : Constant
Bit rate : 128 Kbps
Channel(s) : 2 channels
Sampling rate : 44.1 KHz
Compression mode : Lossy
Stream size : 23.0 MiB (10%)
Alignment : Split accross interleaves
Interleave, duration : 42 ms (1.00 video frame)
Interleave, preload duration : 500 ms
Audio #2
ID : 2
Format : MPEG Audio
Format version : Version 1
Format profile : Layer 3
Codec ID : 55
Codec ID/Hint : MP3
Duration : 25mn 9s
Bit rate mode : Constant
Bit rate : 128 Kbps
Channel(s) : 2 channels
Sampling rate : 44.1 KHz
Compression mode : Lossy
Stream size : 23.0 MiB (10%)
Alignment : Split accross interleaves
Interleave, duration : 42 ms (1.00 video frame)
Interleave, preload duration : 500 ms
[Профиль] [ЛС]
Показать сообщения:    
Ответить на тему

Текущее время: 26-Май 23:53

Часовой пояс: UTC + 3



Вы не можете начинать темы
Вы не можете отвечать на сообщения
Вы не можете редактировать свои сообщения
Вы не можете удалять свои сообщения
Вы не можете голосовать в опросах
Вы не можете прикреплять файлы к сообщениям
Вы не можете скачивать файлы