Prong - Carved into Stone (2012) [FLAC|Lossless]<Crossover/Thrash/Groove Metal>

Ответить на тему
 
Автор Сообщение

Bot ®

Стаж: 1 год 11 месяцев

Сообщений: 7

Создавать темы 12-Янв-2017 14:02

[Цитировать]

Prong - Carved into Stone (2012)- Год: 2012
Жанр: Crossover/Thrash/Groove Metal
Продолжительность: 00:42:26
Страна: USA
Кодек: FLAC (tracks+.cue)
Битрейт: Lossless-Трек лист:
01. Eternal Heat (03:53)
02. Keep On Living In Pain (03:43)
03. Ammunition (03:30)
04. Revenge Best Served Cold (04:23)
05. State Of Rebellion (03:55)
06. Put Myself To Sleep (03:46)
07. List Of Grievances (02:54)
08. Carved Into Stone (05:22)
09. Subtract (03:51)
10. Path Of Least Resistance (04:15)
11. Reinvestigate (02:50)- -
Отчёт XLD:
Код:
X Lossless Decoder version 20120407 (140.0)
XLD extraction logfile from 2012-04-25 11:28:41 M
Prong / Carved into stone
Used drive : HL-DT-ST DVD-RW GH41N (revision PQ06)
Ripper mode             : CDParanoia III 10.2
Disable audio cache     : OK for the drive with a cache less than 2750KiB
Make use of C2 pointers : NO
Read offset correction  : 667
Max retry count         : 100
Gap status              : Analyzed, Appended
TOC of the extracted CD
     Track |   Start  |  Length  | Start sector | End sector
    ---------------------------------------------------------
        1  | 00:00:00 | 03:53:28 |         0    |    17502
        2  | 03:53:28 | 03:43:22 |     17503    |    34249
        3  | 07:36:50 | 03:30:39 |     34250    |    50038
        4  | 11:07:14 | 04:23:25 |     50039    |    69788
        5  | 15:30:39 | 03:55:28 |     69789    |    87441
        6  | 19:25:67 | 03:46:03 |     87442    |   104394
        7  | 23:11:70 | 02:54:43 |    104395    |   117487
        8  | 26:06:38 | 05:22:48 |    117488    |   141685
        9  | 31:29:11 | 03:51:04 |    141686    |   159014
       10  | 35:20:15 | 04:15:42 |    159015    |   178181
       11  | 39:35:57 | 02:50:31 |    178182    |   190962
AccurateRip Summary
    Disc not found in AccurateRip DB.
All Tracks
    Album gain             : -8.51 dB
    Peak                   : 0.991425
    Statistics
        Read error                           : 0
        Skipped (treated as error)           : 0
        Edge jitter error (maybe fixed)      : 0
        Atom jitter error (maybe fixed)      : 0
        Drift error (maybe fixed)            : 0
        Dropped bytes error (maybe fixed)    : 0
        Duplicated bytes error (maybe fixed) : 0
Track 01
    Filename : /Volumes/data/Music/work/xld/Prong - Carved into stone (2012) [MP3 V2]/01 Eternal Heat.mp3
               /Volumes/data/Music/work/xld/Prong - Carved into stone (2012) [MP3 V0]/01 Eternal Heat.mp3
               /Volumes/data/Music/work/xld/Prong - Carved into stone (2012) [FLAC]/01 Eternal Heat.flac
               /Volumes/data/Music/work/xld/Prong - Carved into stone (2012) [Apple Lossless]/01 Eternal Heat.m4a
               /Volumes/data/Music/work/xld/Prong - Carved into stone (2012) [MP3 320]/01 Eternal Heat.mp3
    Pre-gap length : 00:02:00
    Track gain             : -8.54 dB
    Peak                   : 0.991364
    CRC32 hash (test run)  : 3170667A
    CRC32 hash             : 3170667A
    CRC32 hash (skip zero) : 51F97008
    AccurateRip signature  : 61E5A182
        ->Track not present in AccurateRip database.
    Statistics
        Read error                           : 0
        Skipped (treated as error)           : 0
        Edge jitter error (maybe fixed)      : 0
        Atom jitter error (maybe fixed)      : 0
        Drift error (maybe fixed)            : 0
        Dropped bytes error (maybe fixed)    : 0
        Duplicated bytes error (maybe fixed) : 0
        Inconsistency in error sectors       : 0
Track 02
    Filename : /Volumes/data/Music/work/xld/Prong - Carved into stone (2012) [MP3 V2]/02 Keep on living in pain.mp3
               /Volumes/data/Music/work/xld/Prong - Carved into stone (2012) [MP3 V0]/02 Keep on living in pain.mp3
               /Volumes/data/Music/work/xld/Prong - Carved into stone (2012) [FLAC]/02 Keep on living in pain.flac
               /Volumes/data/Music/work/xld/Prong - Carved into stone (2012) [Apple Lossless]/02 Keep on living in pain.m4a
               /Volumes/data/Music/work/xld/Prong - Carved into stone (2012) [MP3 320]/02 Keep on living in pain.mp3
    Track gain             : -8.78 dB
    Peak                   : 0.991425
    CRC32 hash (test run)  : BA07DECE
    CRC32 hash             : BA07DECE
    CRC32 hash (skip zero) : 24913795
    AccurateRip signature  : 663E2444
        ->Track not present in AccurateRip database.
    Statistics
        Read error                           : 0
        Skipped (treated as error)           : 0
        Edge jitter error (maybe fixed)      : 0
        Atom jitter error (maybe fixed)      : 0
        Drift error (maybe fixed)            : 0
        Dropped bytes error (maybe fixed)    : 0
        Duplicated bytes error (maybe fixed) : 0
        Inconsistency in error sectors       : 0
Track 03
    Filename : /Volumes/data/Music/work/xld/Prong - Carved into stone (2012) [MP3 V2]/03 Ammunition.mp3
               /Volumes/data/Music/work/xld/Prong - Carved into stone (2012) [MP3 V0]/03 Ammunition.mp3
               /Volumes/data/Music/work/xld/Prong - Carved into stone (2012) [FLAC]/03 Ammunition.flac
               /Volumes/data/Music/work/xld/Prong - Carved into stone (2012) [Apple Lossless]/03 Ammunition.m4a
               /Volumes/data/Music/work/xld/Prong - Carved into stone (2012) [MP3 320]/03 Ammunition.mp3
    Track gain             : -8.70 dB
    Peak                   : 0.991333
    CRC32 hash (test run)  : E5CC805A
    CRC32 hash             : E5CC805A
    CRC32 hash (skip zero) : D34599C5
    AccurateRip signature  : A63644DF
        ->Track not present in AccurateRip database.
    Statistics
        Read error                           : 0
        Skipped (treated as error)           : 0
        Edge jitter error (maybe fixed)      : 0
        Atom jitter error (maybe fixed)      : 0
        Drift error (maybe fixed)            : 0
        Dropped bytes error (maybe fixed)    : 0
        Duplicated bytes error (maybe fixed) : 0
        Inconsistency in error sectors       : 0
Track 04
    Filename : /Volumes/data/Music/work/xld/Prong - Carved into stone (2012) [MP3 V2]/04 Revenge best served cold.mp3
               /Volumes/data/Music/work/xld/Prong - Carved into stone (2012) [MP3 V0]/04 Revenge best served cold.mp3
               /Volumes/data/Music/work/xld/Prong - Carved into stone (2012) [FLAC]/04 Revenge best served cold.flac
               /Volumes/data/Music/work/xld/Prong - Carved into stone (2012) [Apple Lossless]/04 Revenge best served cold.m4a
               /Volumes/data/Music/work/xld/Prong - Carved into stone (2012) [MP3 320]/04 Revenge best served cold.mp3
    Track gain             : -8.76 dB
    Peak                   : 0.991364
    CRC32 hash (test run)  : 26756F71
    CRC32 hash             : 26756F71
    CRC32 hash (skip zero) : 9E45E441
    AccurateRip signature  : 116D69D5
        ->Track not present in AccurateRip database.
    Statistics
        Read error                           : 0
        Skipped (treated as error)           : 0
        Edge jitter error (maybe fixed)      : 0
        Atom jitter error (maybe fixed)      : 0
        Drift error (maybe fixed)            : 0
        Dropped bytes error (maybe fixed)    : 0
        Duplicated bytes error (maybe fixed) : 0
        Inconsistency in error sectors       : 0
Track 05
    Filename : /Volumes/data/Music/work/xld/Prong - Carved into stone (2012) [MP3 V2]/05 State of rebellion.mp3
               /Volumes/data/Music/work/xld/Prong - Carved into stone (2012) [MP3 V0]/05 State of rebellion.mp3
               /Volumes/data/Music/work/xld/Prong - Carved into stone (2012) [FLAC]/05 State of rebellion.flac
               /Volumes/data/Music/work/xld/Prong - Carved into stone (2012) [Apple Lossless]/05 State of rebellion.m4a
               /Volumes/data/Music/work/xld/Prong - Carved into stone (2012) [MP3 320]/05 State of rebellion.mp3
    Track gain             : -8.47 dB
    Peak                   : 0.991333
    CRC32 hash (test run)  : 52BA484A
    CRC32 hash             : 52BA484A
    CRC32 hash (skip zero) : 8CF620DD
    AccurateRip signature  : B9701CD5
        ->Track not present in AccurateRip database.
    Statistics
        Read error                           : 0
        Skipped (treated as error)           : 0
        Edge jitter error (maybe fixed)      : 0
        Atom jitter error (maybe fixed)      : 0
        Drift error (maybe fixed)            : 0
        Dropped bytes error (maybe fixed)    : 0
        Duplicated bytes error (maybe fixed) : 0
        Inconsistency in error sectors       : 0
Track 06
    Filename : /Volumes/data/Music/work/xld/Prong - Carved into stone (2012) [MP3 V2]/06 Put myself to sleep.mp3
               /Volumes/data/Music/work/xld/Prong - Carved into stone (2012) [MP3 V0]/06 Put myself to sleep.mp3
               /Volumes/data/Music/work/xld/Prong - Carved into stone (2012) [FLAC]/06 Put myself to sleep.flac
               /Volumes/data/Music/work/xld/Prong - Carved into stone (2012) [Apple Lossless]/06 Put myself to sleep.m4a
               /Volumes/data/Music/work/xld/Prong - Carved into stone (2012) [MP3 320]/06 Put myself to sleep.mp3
    Track gain             : -8.32 dB
    Peak                   : 0.991364
    CRC32 hash (test run)  : 92D95EEA
    CRC32 hash             : 92D95EEA
    CRC32 hash (skip zero) : AC73BC0E
    AccurateRip signature  : B15595D5
        ->Track not present in AccurateRip database.
    Statistics
        Read error                           : 0
        Skipped (treated as error)           : 0
        Edge jitter error (maybe fixed)      : 0
        Atom jitter error (maybe fixed)      : 0
        Drift error (maybe fixed)            : 0
        Dropped bytes error (maybe fixed)    : 0
        Duplicated bytes error (maybe fixed) : 0
        Inconsistency in error sectors       : 0
Track 07
    Filename : /Volumes/data/Music/work/xld/Prong - Carved into stone (2012) [MP3 V2]/07 List of grievances.mp3
               /Volumes/data/Music/work/xld/Prong - Carved into stone (2012) [MP3 V0]/07 List of grievances.mp3
               /Volumes/data/Music/work/xld/Prong - Carved into stone (2012) [FLAC]/07 List of grievances.flac
               /Volumes/data/Music/work/xld/Prong - Carved into stone (2012) [Apple Lossless]/07 List of grievances.m4a
               /Volumes/data/Music/work/xld/Prong - Carved into stone (2012) [MP3 320]/07 List of grievances.mp3
    Track gain             : -8.13 dB
    Peak                   : 0.991302
    CRC32 hash (test run)  : B38083E4
    CRC32 hash             : B38083E4
    CRC32 hash (skip zero) : 11E5BE27
    AccurateRip signature  : 50F390D7
        ->Track not present in AccurateRip database.
    Statistics
        Read error                           : 0
        Skipped (treated as error)           : 0
        Edge jitter error (maybe fixed)      : 0
        Atom jitter error (maybe fixed)      : 0
        Drift error (maybe fixed)            : 0
        Dropped bytes error (maybe fixed)    : 0
        Duplicated bytes error (maybe fixed) : 0
        Inconsistency in error sectors       : 0
Track 08
    Filename : /Volumes/data/Music/work/xld/Prong - Carved into stone (2012) [MP3 V2]/08 Carved into stone.mp3
               /Volumes/data/Music/work/xld/Prong - Carved into stone (2012) [MP3 V0]/08 Carved into stone.mp3
               /Volumes/data/Music/work/xld/Prong - Carved into stone (2012) [FLAC]/08 Carved into stone.flac
               /Volumes/data/Music/work/xld/Prong - Carved into stone (2012) [Apple Lossless]/08 Carved into stone.m4a
               /Volumes/data/Music/work/xld/Prong - Carved into stone (2012) [MP3 320]/08 Carved into stone.mp3
    Track gain             : -8.47 dB
    Peak                   : 0.991333
    CRC32 hash (test run)  : 7D35D4E0
    CRC32 hash             : 7D35D4E0
    CRC32 hash (skip zero) : 770E632C
    AccurateRip signature  : FBCD1D4F
        ->Track not present in AccurateRip database.
    Statistics
        Read error                           : 0
        Skipped (treated as error)           : 0
        Edge jitter error (maybe fixed)      : 0
        Atom jitter error (maybe fixed)      : 0
        Drift error (maybe fixed)            : 0
        Dropped bytes error (maybe fixed)    : 0
        Duplicated bytes error (maybe fixed) : 0
        Inconsistency in error sectors       : 0
Track 09
    Filename : /Volumes/data/Music/work/xld/Prong - Carved into stone (2012) [MP3 V2]/09 Subtract.mp3
               /Volumes/data/Music/work/xld/Prong - Carved into stone (2012) [MP3 V0]/09 Subtract.mp3
               /Volumes/data/Music/work/xld/Prong - Carved into stone (2012) [FLAC]/09 Subtract.flac
               /Volumes/data/Music/work/xld/Prong - Carved into stone (2012) [Apple Lossless]/09 Subtract.m4a
               /Volumes/data/Music/work/xld/Prong - Carved into stone (2012) [MP3 320]/09 Subtract.mp3
    Track gain             : -8.56 dB
    Peak                   : 0.991302
    CRC32 hash (test run)  : C7CDE47B
    CRC32 hash             : C7CDE47B
    CRC32 hash (skip zero) : 4B1168F9
    AccurateRip signature  : 14530268
        ->Track not present in AccurateRip database.
    Statistics
        Read error                           : 0
        Skipped (treated as error)           : 0
        Edge jitter error (maybe fixed)      : 0
        Atom jitter error (maybe fixed)      : 0
        Drift error (maybe fixed)            : 0
        Dropped bytes error (maybe fixed)    : 0
        Duplicated bytes error (maybe fixed) : 0
        Inconsistency in error sectors       : 0
Track 10
    Filename : /Volumes/data/Music/work/xld/Prong - Carved into stone (2012) [MP3 V2]/10 Path of least resistance.mp3
               /Volumes/data/Music/work/xld/Prong - Carved into stone (2012) [MP3 V0]/10 Path of least resistance.mp3
               /Volumes/data/Music/work/xld/Prong - Carved into stone (2012) [FLAC]/10 Path of least resistance.flac
               /Volumes/data/Music/work/xld/Prong - Carved into stone (2012) [Apple Lossless]/10 Path of least resistance.m4a
               /Volumes/data/Music/work/xld/Prong - Carved into stone (2012) [MP3 320]/10 Path of least resistance.mp3
    Track gain             : -7.92 dB
    Peak                   : 0.991333
    CRC32 hash (test run)  : 33E756FF
    CRC32 hash             : 33E756FF
    CRC32 hash (skip zero) : 38C4FAA1
    AccurateRip signature  : 02907904
        ->Track not present in AccurateRip database.
    Statistics
        Read error                           : 0
        Skipped (treated as error)           : 0
        Edge jitter error (maybe fixed)      : 0
        Atom jitter error (maybe fixed)      : 0
        Drift error (maybe fixed)            : 0
        Dropped bytes error (maybe fixed)    : 0
        Duplicated bytes error (maybe fixed) : 0
        Inconsistency in error sectors       : 0
Track 11
    Filename : /Volumes/data/Music/work/xld/Prong - Carved into stone (2012) [MP3 V2]/11 Reinvestigate.mp3
               /Volumes/data/Music/work/xld/Prong - Carved into stone (2012) [MP3 V0]/11 Reinvestigate.mp3
               /Volumes/data/Music/work/xld/Prong - Carved into stone (2012) [FLAC]/11 Reinvestigate.flac
               /Volumes/data/Music/work/xld/Prong - Carved into stone (2012) [Apple Lossless]/11 Reinvestigate.m4a
               /Volumes/data/Music/work/xld/Prong - Carved into stone (2012) [MP3 320]/11 Reinvestigate.mp3
    Track gain             : -8.43 dB
    Peak                   : 0.991333
    CRC32 hash (test run)  : B3F190D6
    CRC32 hash             : B3F190D6
    CRC32 hash (skip zero) : E24A2BB9
    AccurateRip signature  : 3417FC97
        ->Track not present in AccurateRip database.
    Statistics
        Read error                           : 0
        Skipped (treated as error)           : 0
        Edge jitter error (maybe fixed)      : 0
        Atom jitter error (maybe fixed)      : 0
        Drift error (maybe fixed)            : 0
        Dropped bytes error (maybe fixed)    : 0
        Duplicated bytes error (maybe fixed) : 0
        Inconsistency in error sectors       : 0
No errors occurred
End of status report
Отчёт auCDtect Task manager:
Код:
-----------------------
DON'T MODIFY THIS FILE
-----------------------
PERFORMER: auCDtect Task Manager, ver. 1.5.1RC2 build 1.5.1.3
Copyright (c) 2008-2010 y-soft. All rights reserved
http://y-soft.org
ANALYZER: auCDtect: CD records authenticity detector, version 0.8.2
Copyright (c) 2004 Oleg Berngardt. All rights reserved.
Copyright (c) 2004 Alexander Djourik. All rights reserved.
FILE: 11 Reinvestigate.flac
  Size: 23414919 Hash: AB7EEEE795B1247C38934DEF6FCCABAA Accuracy: -m0
  Conclusion: CDDA 100%
  Signature: F60BDD2CEE3A2B942627567716797D781450D0EF
FILE: 10 Path of least resistance.flac
  Size: 32305935 Hash: 3200B1A3EC629044AA6E06EBCF0F2FC9 Accuracy: -m0
  Conclusion: CDDA 100%
  Signature: F17B23D1EB4B85366AF212F9CFDDBA0143955A1E
FILE: 09 Subtract.flac
  Size: 29548237 Hash: B6FC634C69B76A08070D8D0B7BDA47C6 Accuracy: -m0
  Conclusion: CDDA 100%
  Signature: 2F45B1EBB7F6DE36B8A6F4DDD730132C854DAF39
FILE: 08 Carved into stone.flac
  Size: 42306934 Hash: 76C06A3D0C7A1C7E2BCCC363F61D474B Accuracy: -m0
  Conclusion: CDDA 100%
  Signature: F301279CAD1683461C1B4CBD4EDB98450855151A
FILE: 07 List of grievances.flac
  Size: 23719029 Hash: 3A398D774D90C60F449388E68EF7112D Accuracy: -m0
  Conclusion: CDDA 100%
  Signature: 9E886E32672F26066982D45231637E7C28A50B45
FILE: 06 Put myself to sleep.flac
  Size: 31125627 Hash: F45C32D2AC63244CAA6BE0D1773C4D0E Accuracy: -m0
  Conclusion: CDDA 100%
  Signature: C8133BF10CF9FABEDA45FE0D0F57591AE74E1BFF
FILE: 05 State of rebellion.flac
  Size: 31990522 Hash: EFB286B8A6A2E6F9021D4C3D16699285 Accuracy: -m0
  Conclusion: CDDA 100%
  Signature: 0E7B4300AF6E89A2556B46A23B938513D2850ACF
FILE: 04 Revenge best served cold.flac
  Size: 35604793 Hash: B889572B8B74BB1328B8478B3BEEE7D2 Accuracy: -m0
  Conclusion: CDDA 100%
  Signature: 0CD6DB8F5D675BBD85E87833654A7FB8C5BC69CB
FILE: 03 Ammunition.flac
  Size: 28592344 Hash: 92F01093C150E95F7D43793F64B56396 Accuracy: -m0
  Conclusion: CDDA 100%
  Signature: 488865E30D132309739FC74BF842A3FF0EDAD35F
FILE: 02 Keep on living in pain.flac
  Size: 29785461 Hash: F5C119E5F951984CC8722CCFB6787B33 Accuracy: -m0
  Conclusion: CDDA 100%
  Signature: 209AE5000D8A8F19656E08280E6756B8A360E7BF
FILE: 01 Eternal Heat.flac
  Size: 31468560 Hash: D19C2C15EFD31B7086B53BAEE118542E Accuracy: -m0
  Conclusion: CDDA 100%
  Signature: 84DAF866C6A3F3428DA66F4BD1C8F34F64B6B339
Время раздачи: с 00:00 до первых скачавших-

Поглощение/вытеснение
Только с согласия релизера

J_Man
[Профиль] [ЛС]
Показать сообщения:    
Ответить на тему

Текущее время: 19-Сен 20:02

Часовой пояс: UTC + 3



Вы не можете начинать темы
Вы не можете отвечать на сообщения
Вы не можете редактировать свои сообщения
Вы не можете удалять свои сообщения
Вы не можете голосовать в опросах
Вы не можете прикреплять файлы к сообщениям
Вы не можете скачивать файлы