Сегодня идет свободное скачивание без начисления Download

Александр Куртеев | Полная защита сайта на Joomla 3.0 (2014) PCRec

Ответить на тему
 
Автор Сообщение

Bot ®

Стаж: 3 года 6 месяцев

Сообщений: 11

Создавать темы 12-Окт-2017 19:15

[Цитировать]

Александр Куртеев | Полная защита сайта на Joomla 3.0 (2014) PCRec- Автор (режиссер): Александр Куртеев
Жанр: Веб-безопасность
Продолжительность: 04:59:00
Качество видео: PCRec
Видеокодек: AVC
Битрейт видео: ~405 - 1342 kb/s
Размер кадра: 640х480, 1280х720
Аудиокодек: AAC
Битрейт аудио: 128 - 192 kb/s (CBR), 2 Ch, 32000 - 44100 Hz
Доп. материалы: Есть
Описание:
Данный курс полностью адаптирован и дополнен новыми средствами защиты для Joomla 3-ей серии.
Выполнив шаг за шагом необходимые, простые действия, описанные в уроках, вы создадите максимальную защиту ваших сайтов и обеспечите их быстрое восстановление, даже если против вас восстала "золотая орда" хакеров.
Стандартный комплект включает в себя:
Курс "Полная защита сайта на Joomla"
- Рабочую тетрадь с домашними заданиями и ключевыми моментами с каждого урока.
- Чек-лист - полная защита сайта на Joomla. Список всех действий, необходимых для защиты сайта. Сэкономит вам массу времени при последующей защите ваших сайтов.
- Чек-лист - что делать если вас взламывают. Четкий список действий, которые нужно предпринять в экстренной ситуации, чтобы выйти из боя без потерь
- Чек-лист - что делать, если вас взломали. Подробный список по обеспечению безопасности сайта после взлома и вылечиванию вирусов на сайте.
Бонус 1: "Тотальная защита Joomla, интервью с экспертом"
Бонус 2: "Как сделать красивые ссылки на вашем сайте и надежно замаскировать его от непрошенных разведчиков?"
MediaInfo:
Код:
Общее
Полное имя                               : C:\Куртеев А. - Полная защита сайта на Joomla 3.0. - 2014\Курс\interview.mp4
Формат                                   : MPEG-4
Профиль формата                          : Base Media
Идентификатор кодека                     : isom
Размер файла                             : 96,9 Мбайт
Продолжительность                        : 25 м.
Общий поток                              : 539 Кбит/сек
Программа кодирования                    : Lavf54.15.102
Видео
Идентификатор                            : 1
Формат                                   : AVC
Формат/Информация                        : Advanced Video Codec
Профиль формата                          : High@L3.0
Параметр CABAC формата                   : Да
Параметр ReFrames формата                : 4 кадра
Идентификатор кодека                     : avc1
Идентификатор кодека/Информация          : Advanced Video Coding
Продолжительность                        : 25 м.
Битрейт                                  : 405 Кбит/сек
Ширина                                   : 640 пикселей
Высота                                   : 480 пикселей
Соотношение сторон                       : 4:3
Режим частоты кадров                     : Постоянный
Частота кадров                           : 29,970 кадров/сек
Цветовое пространство                    : YUV
Субдискретизация насыщенности            : 4:2:0
Битовая глубина                          : 8 бит
Тип развёртки                            : Прогрессивная
Бит/(Пиксели*Кадры)                      : 0.044
Размер потока                            : 72,8 Мбайт (75%)
Библиотека кодирования                   : x264 core 125 r2200 999b753
Настройки программы                      : cabac=1 / ref=3 / deblock=1:0:0 / analyse=0x3:0x113 / me=hex / subme=7 / psy=1 / psy_rd=1.00:0.00 / mixed_ref=1 / me_range=16 / chroma_me=1 / trellis=1 / 8x8dct=1 / cqm=0 / deadzone=21,11 / fast_pskip=1 / chroma_qp_offset=-2 / threads=6 / lookahead_threads=1 / sliced_threads=0 / nr=0 / decimate=1 / interlaced=0 / bluray_compat=0 / constrained_intra=0 / bframes=3 / b_pyramid=2 / b_adapt=1 / b_bias=0 / direct=1 / weightb=1 / open_gop=0 / weightp=2 / keyint=250 / keyint_min=25 / scenecut=40 / intra_refresh=0 / rc_lookahead=40 / rc=crf / mbtree=1 / crf=23.0 / qcomp=0.60 / qpmin=0 / qpmax=69 / qpstep=4 / ip_ratio=1.40 / aq=1:1.00
Язык                                     : English
Аудио
Идентификатор                            : 2
Формат                                   : AAC
Формат/Информация                        : Advanced Audio Codec
Профиль формата                          : LC
Идентификатор кодека                     : 40
Продолжительность                        : 25 м.
Duration_LastFrame                       : -14 мс.
Вид битрейта                             : Постоянный
Битрейт                                  : 128 Кбит/сек
Каналы                                   : 2 канала
Расположение каналов                     : Front: L R
Частота                                  : 32,0 КГц
Метод сжатия                             : С потерями
Размер потока                            : 23,0 Мбайт (24%)
Язык                                     : English
Код:
Общее
Полное имя                               : C:\Куртеев А. - Полная защита сайта на Joomla 3.0. - 2014\Курс\5_2.mp4
Формат                                   : MPEG-4
Профиль формата                          : Base Media
Идентификатор кодека                     : isom
Размер файла                             : 136 Мбайт
Продолжительность                        : 12 м.
Общий поток                              : 1539 Кбит/сек
Программа кодирования                    : Lavf55.42.100
Видео
Идентификатор                            : 1
Формат                                   : AVC
Формат/Информация                        : Advanced Video Codec
Профиль формата                          : Baseline@L3.1
Параметр CABAC формата                   : Нет
Параметр ReFrames формата                : 3 кадра
Идентификатор кодека                     : avc1
Идентификатор кодека/Информация          : Advanced Video Coding
Продолжительность                        : 12 м.
Битрейт                                  : 1342 Кбит/сек
Ширина                                   : 1280 пикселей
Высота                                   : 720 пикселей
Соотношение сторон                       : 16:9
Режим частоты кадров                     : Постоянный
Частота кадров                           : 30,000 кадров/сек
Стандарт вещания                         : NTSC
Цветовое пространство                    : YUV
Субдискретизация насыщенности            : 4:2:0
Битовая глубина                          : 8 бит
Тип развёртки                            : Прогрессивная
Бит/(Пиксели*Кадры)                      : 0.049
Размер потока                            : 119 Мбайт (87%)
Язык                                     : English
Аудио
Идентификатор                            : 2
Формат                                   : AAC
Формат/Информация                        : Advanced Audio Codec
Профиль формата                          : LC
Идентификатор кодека                     : 40
Продолжительность                        : 12 м.
Вид битрейта                             : Постоянный
Битрейт                                  : 192 Кбит/сек
Каналы                                   : 2 канала
Расположение каналов                     : Front: L R
Частота                                  : 44,1 КГц
Метод сжатия                             : С потерями
Размер потока                            : 16,8 Мбайт (12%)
Язык                                     : English
Скриншоты:
Дополнительные скриншоты:
Время раздачи: 24/7 (круглосуточно)
[Профиль] [ЛС]
Показать сообщения:    
Ответить на тему

Текущее время: 11-Дек 10:42

Часовой пояс: UTC + 3



Вы не можете начинать темы
Вы не можете отвечать на сообщения
Вы не можете редактировать свои сообщения
Вы не можете удалять свои сообщения
Вы не можете голосовать в опросах
Вы не можете прикреплять файлы к сообщениям
Вы не можете скачивать файлы