Сегодня идет свободное скачивание без начисления Download

Прогулка по лесам / A Walk in the Woods (2015) HDRip

Ответить на тему
 
Автор Сообщение

Bot ®

Стаж: 3 года 8 месяцев

Сообщений: 7

Создавать темы 13-Фев-2018 19:45

[Цитировать]

Прогулка по лесам / A Walk in the Woods (2015) HDRip- Производство: США
Жанр: Драма, комедия, приключения, биография
Режиссер: Кен Куопис
Актеры: Роберт Редфорд, Ник Нолти, Эмма Томпсон, Мэри Стинберген, Ник Офферман, Кристен Шаал, Рэндолл Ньюсом, Хейли Ловитт, Линдс Эдвардс
Описание: Экранизация романа американского журналиста и путешественника Билла Брайсона. Автор рассказывает о предпринятом им путешествии в компании своего старого друга, бывшего алкоголика, по знаменитой Аппалачской тропе, где путников на каждом шагу подстерегают опасности.

Дата мировой премьеры: 23 января 2015
Продолжительность: 01:44:47
Качество видео: HDRip
Перевод: Любительский двухголосый (Parovoz Production)
Субтитры: Отсутствуют
Реклама: Присутствуют голосовые и видео вставки рекламы.
Видео: MPEG4, XviD, 720x304 (2.35:1), 23.976 fps, 858 Kbps (0.163 bit/pixel)
Аудио: AC-3, 48.0 KHz, 2 ch, 128 Kbps, CBR
MediaInfo:
Общее
Полное имя : C:\_\Прогулка по лесам\Progulka po lesam 2015 HDRip 700.avi
Формат : AVI
Формат/Информация : Audio Video Interleave
Размер файла : 746 Мбайт
Продолжительность : 1 ч. 44 м.
Общий поток : 995 Кбит/сек
Программа кодирования : VirtualDubMod 1.5.10.3 | www.virtualdub-fr.org || (build 2550/release)
Библиотека кодирования : VirtualDubMod build 2550/release
Видео
Идентификатор : 0
Формат : MPEG-4 Visual
Профиль формата : Advanced Simple@L5
Параметр BVOP формата : 2
Параметр QPel формата : Нет
Параметр GMC формата : Без точки перехода
Параметр матрицы формата : Default (MPEG)
Идентификатор кодека : XVID
Идентификатор кодека/Подсказка : XviD
Продолжительность : 1 ч. 44 м.
Битрейт : 858 Кбит/сек
Ширина : 720 пикселей
Высота : 304 пикселя
Соотношение сторон : 2,35:1
Частота кадров : 23,976 кадра/сек
Цветовое пространство : YUV
Субдискретизация насыщенности : 4:2:0
Битовая глубина : 8 бит
Тип развёртки : Прогрессивная
Метод сжатия : С потерями
Бит/(Пиксели*Кадры) : 0.163
Размер потока : 643 Мбайт (86%)
Библиотека кодирования : XviD 1.2.1 (UTC 2008-12-04)
Аудио
Идентификатор : 1
Формат : AC-3
Формат/Информация : Audio Coding 3
Расширение режима : CM (complete main)
Идентификатор кодека : 2000
Продолжительность : 1 ч. 44 м.
Вид битрейта : Постоянный
Битрейт : 128 Кбит/сек
Каналы : 2 канала
Расположение каналов : Front: L R
Частота : 48,0 КГц
Битовая глубина : 16 бит
Метод сжатия : С потерями
Размер потока : 95,9 Мбайт (13%)
Выравнивание : Разделение по промежуткам
Продолжительность промежутка : 42 мс. (1,00 видеокадр)
Время предзагрузки промежутка : 500 мс.
Скриншоты:
Время раздачи: Круглосуточно до 10 скачавших
[Профиль] [ЛС]
Показать сообщения:    
Ответить на тему

Текущее время: 21-Сен 07:13

Часовой пояс: UTC + 3



Вы не можете начинать темы
Вы не можете отвечать на сообщения
Вы не можете редактировать свои сообщения
Вы не можете удалять свои сообщения
Вы не можете голосовать в опросах
Вы не можете прикреплять файлы к сообщениям
Вы не можете скачивать файлы