Сегодня идет свободное скачивание без начисления Download

Воскресный день в аду (1987) DVDRip [H.264]

Ответить на тему
 
Автор Сообщение

Bot ®

Стаж: 9 месяцев 7 дней

Сообщений: 4

Создавать темы 13-Фев-2018 18:16

[Цитировать]

Воскресный день в аду (1987) DVDRip [H.264] - Производство: СССР / Литовская киностудия, Zalakiavicius, Vitautas
Жанр: Драма, Военный
Режиссер: Альмантас Грикявичюс, Автандил Квирикашвили, Витаутас Жалакявичюс
Актеры: Владимир Богин, Видас Петкявичюс, Витаутас Паукште, Ингеборга Дапкунайте, Юозас Будрайтис, Улдис Ваздикс, Альгирдас Паулавичюс, Саулюс Баландис, Ирена Куксенайте
Описание:
Летом 1944 года двое советских военнопленных – литовец и русский – совершают побег из концлагеря. Спасаясь от погони, они оказываются в зоне отдыха эсэсовцев на приморском пляже. Литовец прекрасно говорит по-немецки, русский же знает лишь несколько фраз. Здесь, под страшной угрозой быть разоблаченными им придется провести целый день…

Возраст: 12+ (зрителям, достигшим 12 лет)
Релиз от: AVPStudio
Продолжительность: 01:32:52
Качество видео: DVDRip
Видео: AVC/H.264, 696x536@714x536, ~2055 Kbps
Аудио: AC3, 2 ch, 192 Kbps
Mediainfo:
General
Unique ID : 206895010882552287614128231852866446728 (0x9BA6879920DAED9E9D83DA1FDE36A588)
Complete name : /media/win/TORRENT/UPLOAD TORRENTS/Voskresnyy.den.v.adu.1987.DVDRip-AVC.mkv
Format : Matroska
Format version : Version 2
File size : 1.46 GiB
Duration : 1 h 32 min
Overall bit rate : 2 249 kb/s
Encoded date : UTC 2015-10-15 17:18:17
Writing application : mkvmerge v6.1.0 ('Old Devil') built on Mar 4 2013 09:10:42
Writing library : libebml v1.3.0 + libmatroska v1.4.0
Video
ID : 1
Format : AVC
Format/Info : Advanced Video Codec
Format profile : High@L4.1
Format settings : CABAC / 10 Ref Frames
Format settings, CABAC : Yes
Format settings, ReFrames : 10 frames
Codec ID : V_MPEG4/ISO/AVC
Duration : 1 h 32 min
Bit rate : 2 055 kb/s
Width : 696 pixels
Height : 536 pixels
Display aspect ratio : 4:3
Frame rate mode : Constant
Frame rate : 25.000 FPS
Color space : YUV
Chroma subsampling : 4:2:0
Bit depth : 8 bits
Scan type : Progressive
Bits/(Pixel*Frame) : 0.220
Stream size : 1.31 GiB (89%)
Writing library : x264 core 148 r2597 e86f3a1
Encoding settings : cabac=1 / ref=10 / deblock=1:-2:-1 / analyse=0x3:0x113 / me=umh / subme=10 / psy=1 / psy_rd=1.00:0.00 / mixed_ref=1 / me_range=32 / chroma_me=1 / trellis=2 / 8x8dct=1 / cqm=0 / deadzone=21,11 / fast_pskip=1 / chroma_qp_offset=-2 / threads=6 / lookahead_threads=1 / sliced_threads=0 / nr=0 / decimate=0 / interlaced=0 / bluray_compat=0 / constrained_intra=0 / bframes=8 / b_pyramid=2 / b_adapt=2 / b_bias=0 / direct=3 / weightb=1 / open_gop=0 / weightp=2 / keyint=250 / keyint_min=25 / scenecut=40 / intra_refresh=0 / rc=2pass / mbtree=0 / bitrate=2055 / ratetol=1.0 / qcomp=0.60 / qpmin=0 / qpmax=69 / qpstep=4 / cplxblur=20.0 / qblur=0.5 / ip_ratio=1.40 / pb_ratio=1.30 / aq=1:1.00
Default : Yes
Forced : No
Audio
ID : 2
Format : AC-3
Format/Info : Audio Coding 3
Codec ID : A_AC3
Duration : 1 h 32 min
Bit rate mode : Constant
Bit rate : 192 kb/s
Channel(s) : 2 channels
Channel positions : Front: L R
Sampling rate : 44.1 kHz
Frame rate : 28.711 FPS (1536 SPF)
Bit depth : 16 bits
Compression mode : Lossy
Stream size : 128 MiB (9%)
Service kind : Complete Main
Default : Yes
Forced : No
Скриншоты:
Все одноименные релизы в КлубеВремя раздачи: с 09:00 до 22:00 до пяти скачавших (до появления первых 3-5 скачавших)
[Профиль] [ЛС]
Показать сообщения:    
Ответить на тему

Текущее время: 20-Сен 17:25

Часовой пояс: UTC + 3



Вы не можете начинать темы
Вы не можете отвечать на сообщения
Вы не можете редактировать свои сообщения
Вы не можете удалять свои сообщения
Вы не можете голосовать в опросах
Вы не можете прикреплять файлы к сообщениям
Вы не можете скачивать файлы