Сегодня идет свободное скачивание без начисления Download

Секретные материалы / The X-Files (2018) WEBRip [H.264/1080p] (сезон 11, серии 1-6 из 10) ТВ3 (обновляемая)

Ответить на тему
 
Автор Сообщение

Bot ®

Стаж: 4 года

Сообщений: 10

Создавать темы 13-Фев-2018 20:01

[Цитировать]

Секретные материалы / The X-Files (2018) WEBRip [H.264/1080p] (сезон 11, серии 1-6 из 10)
«Истина где-то рядом»
- Производство: США / Ten Thirteen Productions, 20th Century Fox Television
Жанр: фантастика, триллер, драма, детектив
Режиссер: Крис Картер, Джеймс Вонг, Дарин Морган, Глен Морган
Актеры: Джиллиан Андерсон, Дэвид Духовны, Митч Пилледжи, Уильям Б. Дэвис, Дин Хэглунд, Аннабет Гиш, Джеймс Пикенс мл., Крис Оуэнс и др.
Описание:
Продолжение перезагрузки культового американского сериала. Главной интригой 11 сезона станет появление в нем сына двух агентов, Уильяма. Кто такой этот Уильям и откуда он взялся? ...

Возраст: 16+ (зрителям, достигшим 16 лет)
Продолжительность: ~00:45:00 серия
Качество видео: WEBRip
Перевод: Дублированный - ТВ3
Субтитры: русские (форсированные), английские
Видео: AVC/H.264, 1920x1080 (16:9), ~11,8 Mbps
Аудио 1: AC3, 2 ch, 192 kbps - русский, дублированный
Аудио 2: Е-AC3, 6 ch, 640 kbps - английский
Mediainfo:
Общее
Уникальный идентификатор : 231716064214428689895021449689643902440 (0xAE52E402BA23D1B48204162E8B0065E8)
Полное имя : s11e01. Моя борьба-3.mkv
Формат : Matroska
Версия формата : Version 2
Размер файла : 3,77 Гбайт
Продолжительность : 42 м.
Режим общего битрейта : Переменный
Общий поток : 12,8 Мбит/сек
Название фильма : My Struggle III
Дата кодирования : UTC 2018-01-05 14:22:14
Программа кодирования : mkvmerge v7.8.0 ('River Man') 32bit built on Apr 3 2015 12:11:22
Библиотека кодирования : libebml v1.3.1 + libmatroska v1.4.2
Attachment : Yes
Видео
Идентификатор : 1
Формат : AVC
Формат/Информация : Advanced Video Codec
Профиль формата : High@L4.0
Параметр CABAC формата : Да
Параметр ReFrames формата : 4 кадра
Идентификатор кодека : V_MPEG4/ISO/AVC
Продолжительность : 42 м.
Вид битрейта : Переменный
Битрейт : 11,8 Мбит/сек
Максимальный битрейт : 15,0 Мбит/сек
Ширина : 1920 пикселей
Высота : 1080 пикселей
Соотношение сторон : 16:9
Режим частоты кадров : Постоянный
Частота кадров : 24,000 кадра/сек
Частота кадров в оригинале : 23,976 кадра/сек
Цветовое пространство : YUV
Субдискретизация насыщенности : 4:2:0
Битовая глубина : 8 бит
Тип развёртки : Прогрессивная
Бит/(Пиксели*Кадры) : 0.236
Размер потока : 3,45 Гбайт (92%)
Язык : English
Default : Да
Forced : Нет
Основные цвета : BT.709
Характеристики трансфера : BT.709
Коэффициенты матрицы : BT.709
Аудио #1
Идентификатор : 2
Формат : AC-3
Формат/Информация : Audio Coding 3
Профиль формата : Dolby Digital
Расширение режима : CM (complete main)
Параметр Endianness формата : Big
Идентификатор кодека : A_AC3
Продолжительность : 42 м.
Вид битрейта : Постоянный
Битрейт : 192 Кбит/сек
Каналы : 2 канала
Расположение каналов : Front: L R
Частота : 48,0 КГц
Битовая глубина : 16 бит
Метод сжатия : С потерями
Размер потока : 57,7 Мбайт (1%)
Заголовок : Dub
Язык : Russian
Default : Да
Forced : Нет
Аудио #2
Идентификатор : 3
Формат : AC-3
Формат/Информация : Audio Coding 3
Расширение режима : CM (complete main)
Параметр Endianness формата : Big
Идентификатор кодека : A_AC3
Продолжительность : 42 м.
Вид битрейта : Постоянный
Битрейт : 640 Кбит/сек
Каналы : 6 каналов
Расположение каналов : Front: L C R, Side: L R, LFE
Частота : 48,0 КГц
Битовая глубина : 16 бит
Метод сжатия : С потерями
Размер потока : 192 Мбайт (5%)
Язык : English
Default : Нет
Forced : Нет
Текст #1
Идентификатор : 4
Формат : UTF-8
Идентификатор кодека : S_TEXT/UTF8
Идентификатор кодека/Информация : UTF-8 Plain Text
Заголовок : Forced
Язык : Russian
Default : Да
Forced : Нет
Текст #2
Идентификатор : 5
Формат : UTF-8
Идентификатор кодека : S_TEXT/UTF8
Идентификатор кодека/Информация : UTF-8 Plain Text
Язык : English
Default : Нет
Forced : Нет
Список серий
1. Моя борьба III / My Struggle III
2. Это / This
3. Плюс один / Plus One
4. Потерянное искусство пота на лбу / The Lost Art of Forehead Sweat
5. Вампир / Ghouli
6. Котенок / Kitten
Внимание! Раздача ведётся путём добавления новых серий
Внимание! Раздача ведётся путём добавления новых серий; при каждом добавлении создаётся новый торрент.
Чтобы начать докачку новой серии, пользователям необходимо сделать следующее:
1. Остановить скачивание;
2. Удалить старый торрент у себя из клиента (старые серии удалять не надо);
3. Скачать новый торрент и запустить его у себя в клиенте вместо старого, при этом указать клиенту путь в старую папку куда и должно происходить скачивание новых серий. Ваш клиент при этом должен произвести хеширование (проверку) старой папки и будет докачивать только те серии, которых у вас ещё нет. Старые серии при этом не удаляются, а продолжают раздаваться! Eсли вы уже удалили старые серии, то предотвратить повторную закачку старых серий можно, отжав галочку в соответствующих местах при запуске нового торрента.
Скриншоты:
Все одноименные релизы в КлубеВремя раздачи: 24/7 (до появления первых 3-5 скачавших)
[Профиль] [ЛС]
Показать сообщения:    
Ответить на тему

Текущее время: 21-Сен 13:02

Часовой пояс: UTC + 3



Вы не можете начинать темы
Вы не можете отвечать на сообщения
Вы не можете редактировать свои сообщения
Вы не можете удалять свои сообщения
Вы не можете голосовать в опросах
Вы не можете прикреплять файлы к сообщениям
Вы не можете скачивать файлы