Сегодня идет свободное скачивание без начисления Download

Трудности перевода / Lost in Translation (София Коппола / Sofia Coppola) [2003, США, Япония, Драма, мелодрама, комедия, BDRip] Dub

Ответить на тему
 
Автор Сообщение

Bot ®

Стаж: 2 года 11 месяцев

Сообщений: 9

Создавать темы 13-Фев-2018 20:30

[Цитировать]

Трудности перевода / Lost in Translation
«Каждый ищет понимания»
- Год выпуска: 2003
Страна: США, Япония
Жанр: драма, мелодрама, комедия
Продолжительность: 01:41:39
Перевод: Профессиональный (полное дублирование) R5
Субтитры: нет-Режиссер:
София Коппола / Sofia Coppola-В ролях:
Скарлетт Йоханссон (Charlotte), Билл Мюррей (Bob Harris), Джованни Рибизи (John), Анна Фэрис (Kelly), Акико Такэсита (Ms. Kawasaki), Кадзуёси Минамимагое (Press Agent), Казуко Шибата (Press Agent), Таке (Press Agent), Рюичиро Баба (Concierge), Акира Ямагути (Bellboy), Кэтрин Лэмберт (Jazz Singer)-Описание:
Токио, ночь, фешенебельный бар дорогого отеля… Здесь, спасаясь от бессонницы, встречаются двое американцев: телевизионный актер Боб Харрис и симпатичная молодая женщина Шарлотта. Познакомившись, они пускаются вместе в путешествие по японской столице. Во время своей многочасовой прогулки Боб и Шарлотта попадают в забавные истории и неожиданные перипетии, знакомясь с местными жителями. Жизнь восточного мира открывается американцам яркими и незнакомыми гранями, помогает обнаружить в себе веру в потрясающие человеческие возможности. А случайные встречи становятся очень нужными и важными для постижения жизни.-Релиз группы | IMDB | КиноПоиск |-Качество: BDRip [BDRemux] спасибо «kukushka»
Формат: AVI
Видео: 704x384 (1.83:1), 23.976 fps, XviD build 73 ~1594 kbps avg, 0.25 bit/pixel
Аудио: 48 kHz, AC3 Dolby Digital, 3/2 (L,C,R,l,r) + LFE ch, ~448.00 kbps avg- -
MediaInfo
Код:
General
Complete name                            : D:\Trudnosti_perevoda_2003_BDRip_by_Dalemake.avi
Format                                   : AVI
Format/Info                              : Audio Video Interleave
File size                                : 1.46 GiB
Duration                                 : 1h 41mn
Overall bit rate                         : 2 052 Kbps
Writing application                      : VirtualDubMod 1.5.10.3 | www.virtualdub-fr.org || (build 2550/release)
Writing library                          : VirtualDubMod build 2550/release[br]
Video
ID                                       : 0
Format                                   : MPEG-4 Visual
Format profile                           : Advanced Simple@L5
Format settings, BVOP                    : 1
Format settings, QPel                    : No
Format settings, GMC                     : No warppoints
Format settings, Matrix                  : Custom
Codec ID                                 : XVID
Codec ID/Hint                            : XviD
Duration                                 : 1h 41mn
Bit rate                                 : 1 595 Kbps
Width                                    : 704 pixels
Height                                   : 384 pixels
Display aspect ratio                     : 1.85:1
Frame rate                               : 23.976 fps
Color space                              : YUV
Chroma subsampling                       : 4:2:0
Bit depth                                : 8 bits
Scan type                                : Progressive
Compression mode                         : Lossy
Bits/(Pixel*Frame)                       : 0.246
Stream size                              : 1.13 GiB (78%)
Writing library                          : XviD 73[br]
Audio
ID                                       : 1
Format                                   : AC-3
Format/Info                              : Audio Coding 3
Mode extension                           : CM (complete main)
Format settings, Endianness              : Big
Codec ID                                 : 2000
Duration                                 : 1h 41mn
Bit rate mode                            : Constant
Bit rate                                 : 448 Kbps
Channel(s)                               : 6 channels
Channel positions                        : Front: L C R, Side: L R, LFE
Sampling rate                            : 48.0 KHz
Bit depth                                : 16 bits
Compression mode                         : Lossy
Stream size                              : 326 MiB (22%)
Alignment                                : Split accross interleaves
Interleave, duration                     : 42 ms (1.00 video frame)
Interleave, preload duration             : 500 ms
Сравнение
-
[Профиль] [ЛС]
Показать сообщения:    
Ответить на тему

Текущее время: 21-Сен 13:03

Часовой пояс: UTC + 3



Вы не можете начинать темы
Вы не можете отвечать на сообщения
Вы не можете редактировать свои сообщения
Вы не можете удалять свои сообщения
Вы не можете голосовать в опросах
Вы не можете прикреплять файлы к сообщениям
Вы не можете скачивать файлы