Сегодня идет свободное скачивание без начисления Download

Солдат и слон (1977) DVDRip [H.264]

Ответить на тему
 
Автор Сообщение

Bot ®

Стаж: 4 года 6 месяцев

Сообщений: 15

Создавать темы 13-Мар-2018 16:47

[Цитировать]

Солдат и слон (1977) DVDRip [H.264] - Производство: СССР, Арменфильм
Жанр: Драма, Комедия, Военный
Режиссер: Дмитрий Кесаянц
Актеры: Фрунзе Мкртчян, Владимир Рындин, Владимир Пицек, Ованес Ванян, Валентина Давтян, Стяпонас Космаускас, Вадим Грачев, Алексей Бахарь, Алексей Дмитриев, А. Морковскис и др.
Описание:
В 1942 году из Москвы в Ереван был отправлен слон. Вопреки войне в столице Армении было решено создать зоопарк. Однако под Ростовом железнодорожный состав разбомбили, и долгое время о судьбе слона ничего не знали. Его обнаружили лишь три года спустя, во время штурма одного из особняков под Берлином. Солдату Арменаку, армянину по национальности, был дан приказ - доставить слона в Ереван теперь уже из Германии. Долго водил герой слона по свету, прежде чем выполнить задание...

Возраст: 12+ (зрителям, достигшим 12 лет)
Релиз от: NNM-Club, RG Всё лучшее - детям!
Продолжительность: 01:16:59
Качество видео: DVDRip
Видео: AVC, 720x344 (2.093), 25.000 fps, 2 345 Kbps
Аудио: AC-3, 48.0 KHz, 2 ch, 192 Kbps, CBR
Mediainfo:
Общее
Уникальный идентификатор : 174464285327172883922252377580059257415 (0x83409960D4B5107D83C27ED7ECBC6A47)
Формат : Matroska
Версия формата : Version 2
Размер файла : 1,37 Гбайт
Продолжительность : 1 ч. 17 м.
Общий поток : 2539 Кбит/сек
Дата кодирования : UTC 2018-03-11 23:52:31
Программа кодирования : mkvmerge v6.1.0 ('Old Devil')
Библиотека кодирования : libebml v1.3.0 + libmatroska v1.4.0
Видео
Идентификатор : 1
Формат : AVC
Формат/Информация : Advanced Video Codec
Профиль формата : High@L4.1
Параметр CABAC формата : Да
Параметр ReFrames формата : 12 кадров
Идентификатор кодека : V_MPEG4/ISO/AVC
Продолжительность : 1 ч. 17 м.
Битрейт : 2345 Кбит/сек
Ширина : 720 пикселей
Высота : 344 пикселя
Соотношение сторон : 2,093
Режим частоты кадров : Постоянный
Частота кадров : 25,000 кадров/сек
Цветовое пространство : YUV
Субдискретизация насыщенности : 4:2:0
Битовая глубина : 8 бит
Тип развёртки : Прогрессивная
Бит/(Пиксели*Кадры) : 0.379
Размер потока : 1,24 Гбайт (90%)
Библиотека кодирования : x264 core 130 r2273 b3065e6
Настройки программы : cabac=1 / ref=12 / deblock=1:-1:-1 / analyse=0x3:0x113 / me=umh / subme=10 / psy=1 / psy_rd=1.00:0.15 / mixed_ref=1 / me_range=32 / chroma_me=1 / trellis=2 / 8x8dct=1 / cqm=0 / deadzone=21,11 / fast_pskip=0 / chroma_qp_offset=-3 / threads=3 / lookahead_threads=1 / sliced_threads=0 / nr=0 / decimate=1 / interlaced=0 / bluray_compat=0 / constrained_intra=0 / bframes=6 / b_pyramid=2 / b_adapt=2 / b_bias=0 / direct=3 / weightb=1 / open_gop=0 / weightp=2 / keyint=250 / keyint_min=25 / scenecut=40 / intra_refresh=0 / rc_lookahead=40 / rc=2pass / mbtree=1 / bitrate=2345 / ratetol=1.0 / qcomp=0.60 / qpmin=0 / qpmax=69 / qpstep=4 / cplxblur=20.0 / qblur=0.5 / ip_ratio=1.40 / aq=1:1.00
Default : Да
Forced : Нет
Аудио
Идентификатор : 2
Формат : AC-3
Формат/Информация : Audio Coding 3
Расширение режима : CM (complete main)
Параметр Endianness формата : Big
Идентификатор кодека : A_AC3
Продолжительность : 1 ч. 17 м.
Вид битрейта : Постоянный
Битрейт : 192 Кбит/сек
Каналы : 2 канала
Расположение каналов : Front: L R
Частота : 48,0 КГц
Частота кадров : 31,250 кадров/сек (1536 spf)
Битовая глубина : 16 бит
Метод сжатия : С потерями
Размер потока : 106 Мбайт (8%)
Default : Да
Forced : Нет
Знаете ли вы, что...:
  • Часть съёмок проходила в городе Советск Калининградской области.
  • Роль слона Габуша исполнила слониха Ранго, подопечная цирковых дрессировщиков Корниловых. Всего слониха снялась более чем в тридцати фильмах.
Скриншоты:
Дополнительные скриншоты:
Все одноименные релизы в КлубеВремя раздачи: с 11:00 до 01:00 (до появления первых 3-5 скачавших)
[Профиль] [ЛС]
Показать сообщения:    
Ответить на тему

Текущее время: 21-Сен 12:42

Часовой пояс: UTC + 3



Вы не можете начинать темы
Вы не можете отвечать на сообщения
Вы не можете редактировать свои сообщения
Вы не можете удалять свои сообщения
Вы не можете голосовать в опросах
Вы не можете прикреплять файлы к сообщениям
Вы не можете скачивать файлы