Сегодня идет свободное скачивание без начисления Download

(Synthpop) Depeche Mode - Freelove ( US 9 42419-2) - 2001, APE (image+.cue), lossless

Ответить на тему
 
Автор Сообщение

Bot ®

Стаж: 4 года 9 месяцев

Сообщений: 13

Создавать темы 13-Мар-2018 19:15

[Цитировать]

Depeche Mode - Freelove ( US 9 42419-2)
Жанр: Synthpop
Год выпуска диска: 2001
Производитель диска: USA, Reprise Records
Аудио кодек: APE
Тип рипа: image+.cue
Битрейт аудио: lossless
Продолжительность: 32:51
Трэклист:
01 Freelove (Flood Mix) 3:59
02 Freelove (DJ Muggs Remix) 4:24
03 Zenstation (Non-Album Track) 6:24
04 Freelove (Bertrand Burgalat Remix) 5:27
05 Freelove (Schlammpeitziger "Little Rocking Suction Pump" Version) 6:50
06 Zenstation (Atom's Stereonerd Remix) 5:35
Лог EAC
Exact Audio Copy V0.99 prebeta 5 from 4. May 2009
Отчёт EAC об извлечении, выполненном 7. октября 2009, 12:19
Depeche Mode / Freelove
Дисковод: _NEC DVD_RW ND-4571A Adapter: 1 ID: 1
Режим чтения : Достоверность
Использование точного потока : Да
Отключение кэша аудио : Да
Использование указателей C2 : Нет
Коррекция смещения при чтении : 48
Способность читать области Lead-in и Lead-out : Нет
Заполнение пропущенных сэмплов тишиной : Да
Удаление блоков с тишиной в начале и конце : Нет
При вычислениях CRC использовались нулевые сэмплы : Да
Интерфейс : Установленный внешний ASPI-интерфейс
Выходной формат : Monkey's Audio (без потерь)
Выбранный битрейт : High Lossless Compression
Качество : Высокий
Добавление ID3-тэга : Нет
Утилита сжатия : C:\Program Files\Monkey's Audio\MAC.exe
TOC извлечённого CD
Трек | Старт | Длительность | Начальный сектор | Конечный сектор
---------------------------------------------------------------------
1 | 0:00.00 | 4:01.22 | 0 | 18096
2 | 4:01.22 | 4:25.65 | 18097 | 38036
3 | 8:27.12 | 6:26.30 | 38037 | 67016
4 | 14:53.42 | 5:28.53 | 67017 | 91669
5 | 20:22.20 | 6:52.25 | 91670 | 122594
6 | 27:14.45 | 5:36.37 | 122595 | 147831
Характеристики диапазона извлечения и сообщения об ошибках
Выбранный диапазон
Имя файла D:\music\Depeche Mode\Depeche Mode - Freelove ( US Maxi-Single)\Depeche Mode - Freelove.wav
Пиковый уровень 100.0 %
Качество диапазона 99.9 %
CRC теста 5C806FC3
CRC копии 5C806FC3
Копирование... OK
Ошибок не произошло
AccurateRip: сводка
Трек 1 точное извлечение (доверие 6) [1202054D]
Трек 2 точное извлечение (доверие 8) [30FEB751]
Трек 3 точное извлечение (доверие 8) [C60F27F9]
Трек 4 точное извлечение (доверие 8) [17C0016B]
Трек 5 точное извлечение (доверие 8) [0AFCECF1]
Трек 6 точное извлечение (доверие 8) [6C595F02]
Все треки извлечены точно
Конец отчёта
Доп. информация: Собственноручный рип с "фирмы". По discogs http://www.discogs.com/Depeche-Mode-Freelove/release/152398
[Профиль] [ЛС]
Показать сообщения:    
Ответить на тему

Текущее время: 21-Сен 12:26

Часовой пояс: UTC + 3



Вы не можете начинать темы
Вы не можете отвечать на сообщения
Вы не можете редактировать свои сообщения
Вы не можете удалять свои сообщения
Вы не можете голосовать в опросах
Вы не можете прикреплять файлы к сообщениям
Вы не можете скачивать файлы