Сегодня идет свободное скачивание без начисления Download

(Industrial, Modern Classical, Apocalyptic Folk) TriORE (Triarii & Ordo Rosarius Equilibrio) - Three Hours - 2009, FLAC (image+.cue), lossless

Ответить на тему
 
Автор Сообщение

Bot ®

Стаж: 2 года 8 месяцев

Сообщений: 9

Создавать темы 13-Мар-2018 19:30

[Цитировать]

TriORE (Triarii & Ordo Rosarius Equilibrio) - Three Hours
Жанр: Industrial, Modern Classical, Apocalyptic Folk
Год выпуска диска: 2009
Производитель диска: Germany, Sweden [Eternal Soul Records, Cold Meat Industry]
Аудио кодек: FLAC
Тип рипа: image+.cue
Битрейт аудио: lossless
Продолжительность: 41'19''
Трэклист:
1. The First Three Hours (4:08)
2. Victory Rising (3:10)
3. After Summer We Fall (4:06)
4. The Missing Hour (3:02)
5. Another Love, Another Hate (2:48)
6. No Tears Are Shed For You And Me (3:18)
7. Pleasures & Tortures (3:23)
8. Fires Burn, Like Fires Do (3:18)
9. Let Us Meet In The Trenches (3:38)
10. There's A Smell To Life That Dies (3:27)
11. Europa's Dream (3:48)
12. The Last Three Hours (3:13)
Доп. информация: Совместный проект Christian Erdmann (Triarii) и Tomas Pettersson (Ordo Rosarius Equilibrio). Издание в роскошном "Super jewelcase" с 12-ти страничным буклетом с текстами песен.
Отчет EAC
Exact Audio Copy V0.99 prebeta 5 from 4. May 2009
EAC extraction logfile from 8. October 2009, 13:05
TriORE / Three Hours
Used drive : PIONEER DVD-RW DVR-115D Adapter: 4 ID: 0
Read mode : Secure
Utilize accurate stream : Yes
Defeat audio cache : Yes
Make use of C2 pointers : No
Read offset correction : 48
Overread into Lead-In and Lead-Out : No
Fill up missing offset samples with silence : Yes
Delete leading and trailing silent blocks : No
Null samples used in CRC calculations : Yes
Used interface : Installed external ASPI interface
Used output format : User Defined Encoder
Selected bitrate : 1024 kBit/s
Quality : High
Add ID3 tag : No
Command line compressor : C:\Program Files\Exact Audio Copy\Flac\flac.exe
Additional command line options : -8 -A tukey(0.25) -A gauss(0.1875) -b 4096 -V -T "artist=%a" -T "title=%t" -T "album=%g" -T "date=%y" -T "tracknumber=%n" -T "genre=%m" %s --sector-align
TOC of the extracted CD
Track | Start | Length | Start sector | End sector
---------------------------------------------------------
1 | 0:00.00 | 4:08.64 | 0 | 18663
2 | 4:08.64 | 3:09.74 | 18664 | 32912
3 | 7:18.63 | 4:05.50 | 32913 | 51337
4 | 11:24.38 | 3:02.33 | 51338 | 65020
5 | 14:26.71 | 2:47.51 | 65021 | 77596
6 | 17:14.47 | 3:17.59 | 77597 | 92430
7 | 20:32.31 | 3:23.05 | 92431 | 107660
8 | 23:55.36 | 3:18.17 | 107661 | 122527
9 | 27:13.53 | 3:37.62 | 122528 | 138864
10 | 30:51.40 | 3:27.17 | 138865 | 154406
11 | 34:18.57 | 3:47.53 | 154407 | 171484
12 | 38:06.35 | 3:12.62 | 171485 | 185946
Range status and errors
Selected range
Filename D:\REQUEST\TriORE - 2009 - Three Hours\TriORE - Three Hours.wav
Peak level 99.9 %
Range quality 99.9 %
Test CRC 73EF59BD
Copy CRC 73EF59BD
Copy OK
No errors occurred
AccurateRip summary
Track 1 not present in database
Track 2 not present in database
Track 3 not present in database
Track 4 not present in database
Track 5 not present in database
Track 6 not present in database
Track 7 not present in database
Track 8 not present in database
Track 9 not present in database
Track 10 not present in database
Track 11 not present in database
Track 12 not present in database
None of the tracks are present in the AccurateRip database
End of status report
Отчет AudioChecker
AUDIOCHECKER v1.2 - by Dester - opdester@freemail.hu
~~~~~~~~~~~~~~~~~
1 -===- D:\REQUEST\TriORE - 2009 - Three Hours\TriORE - Three Hours.flac
Extracted successfully
Conclusion: This track looks like CDDA with probability 100%
Сканы буклета и диска прилагаются
[Профиль] [ЛС]
Показать сообщения:    
Ответить на тему

Текущее время: 21-Сен 13:27

Часовой пояс: UTC + 3



Вы не можете начинать темы
Вы не можете отвечать на сообщения
Вы не можете редактировать свои сообщения
Вы не можете удалять свои сообщения
Вы не можете голосовать в опросах
Вы не можете прикреплять файлы к сообщениям
Вы не можете скачивать файлы