Сегодня идет свободное скачивание без начисления Download

(Death metal) Fragile Art - Axiom - 2007, APE (image+.cue), lossless

Ответить на тему
 
Автор Сообщение

Bot ®

Стаж: 3 года 7 месяцев

Сообщений: 10

Создавать темы 13-Мар-2018 19:45

[Цитировать]

Fragile Art - Axiom
Жанр: Death metal
Год выпуска диска: 2007
Производитель диска: Россия CD-Maximum
Аудио кодек: APE
Тип рипа: image+.cue
Битрейт аудио: lossless
Продолжительность: 45 мин
Трэклист:
01. From blind love to wild hate - 4:29
02. Run 2U - 4:32
03. Not dead not alive - 3:12
04. Axiom - 5:12
05. Mirror of fate - 4:40
06. Pain full - 5:38
07. Ray of light - 3:38
08. Dreams of dumb instincts - 4:42
09. Theare is a hope - 4:46
10. Black freedom - 4:07
Отчёт EAC
Exact Audio Copy V0.99 prebeta 4 from 23. January 2008
Отчёт EAC об извлечении, выполненном 11. июня 2009, 23:56
Fragile Art / Axiom
Дисковод: ASUS DRW-2014L1T Adapter: 3 ID: 0
Режим чтения : Достоверность
Использование точного потока : Да
Отключение кэша аудио : Да
Использование указателей C2 : Нет
Коррекция смещения при чтении : 6
Способность читать области Lead-in и Lead-out : Нет
Заполнение пропущенных сэмплов тишиной : Да
Удаление блоков с тишиной в начале и конце : Нет
При вычислениях CRC использовались нулевые сэмплы : Да
Интерфейс : Встроенный Win32-интерфейс для Win NT/2000
Выходной формат : Внутренние WAV-операции
Формат сэмплов : 44.100 Гц; 16 бит; стерео
TOC извлечённого CD
Трек | Старт | Длительность | Начальный сектор | Конечный сектор
---------------------------------------------------------------------
1 | 0:00.00 | 4:29.32 | 0 | 20206
2 | 4:29.32 | 4:31.74 | 20207 | 40605
3 | 9:01.31 | 3:11.44 | 40606 | 54974
4 | 12:13.00 | 5:11.64 | 54975 | 78363
5 | 17:24.64 | 4:39.64 | 78364 | 99352
6 | 22:04.53 | 5:37.61 | 99353 | 124688
7 | 27:42.39 | 3:37.57 | 124689 | 141020
8 | 31:20.21 | 4:41.50 | 141021 | 162145
9 | 36:01.71 | 4:45.53 | 162146 | 183573
10 | 40:47.49 | 4:07.02 | 183574 | 202100
Характеристики диапазона извлечения и сообщения об ошибках
Выбранный диапазон
Имя файла J:\МУЗЫКА\РУССКАЯ\LOSSLESS\В ИНТЕРНЕТ\Fragile Art\Fragile Art - Axiom.wav
Пиковый уровень 100.0 %
Качество диапазона 99.9 %
CRC копии C134BB56
Копирование... OK
Ошибок не произошло
AccurateRip: сводка
Трек 1 нет в базе данных
Трек 2 нет в базе данных
Трек 3 нет в базе данных
Трек 4 нет в базе данных
Трек 5 нет в базе данных
Трек 6 нет в базе данных
Трек 7 нет в базе данных
Трек 8 нет в базе данных
Трек 9 нет в базе данных
Трек 10 нет в базе данных
Ни одного трека нет в базе AccurateRip
Конец отчёта
[Профиль] [ЛС]
Показать сообщения:    
Ответить на тему

Текущее время: 21-Сен 06:53

Часовой пояс: UTC + 3



Вы не можете начинать темы
Вы не можете отвечать на сообщения
Вы не можете редактировать свои сообщения
Вы не можете удалять свои сообщения
Вы не можете голосовать в опросах
Вы не можете прикреплять файлы к сообщениям
Вы не можете скачивать файлы