Сегодня идет свободное скачивание без начисления Download

(New Wave) The Police "Outlandos d'Amour" - 1978, APE (image+.cue), lossless

Ответить на тему
 
Автор Сообщение

Bot ®

Стаж: 2 года 6 месяцев

Сообщений: 6

Создавать темы 13-Мар-2018 20:00

[Цитировать]

The Police "Outlandos d'Amour"
Жанр: New Wave
Год выпуска диска: 1978
Производитель диска: West Germany
Аудио кодек: APE
Тип рипа: image+.cue
Битрейт аудио: lossless
Трэклист:
01. The Police - Next To You 2:50
02. The Police - So Lonely 4:49
03. The Police - Roxanne 3:12
04. The Police - Hole In My Life 4:52
05. The Police - Peanuts 3:58
06. The Police - Can't Stand Losing You 2:58
07. The Police - Truth Hits Everybody 2:53
08. The Police - Born In The 50's 3:40
09. The Police - Be My Girl - Sally 3:22
10. The Police - Masoko Tanga 5:40
скрытый текст
Exact Audio Copy V0.99 prebeta 5 from 4. May 2009
Отчёт EAC об извлечении, выполненном 11. октября 2009, 19:23
The Police / Outlandos d'Amour
Дисковод: ASUS DVD-E616A2 Adapter: 0 ID: 0
Режим чтения : Достоверность
Использование точного потока : Да
Отключение кэша аудио : Да
Использование указателей C2 : Нет
Коррекция смещения при чтении : 6
Способность читать области Lead-in и Lead-out : Нет
Заполнение пропущенных сэмплов тишиной : Да
Удаление блоков с тишиной в начале и конце : Нет
При вычислениях CRC использовались нулевые сэмплы : Да
Интерфейс : Установленный внешний ASPI-интерфейс
Выходной формат : Monkey's Audio (без потерь)
Выбранный битрейт : Extra High Lossless Compression
Качество : Высокий
Добавление ID3-тэга : Да
Утилита сжатия : C:\Program Files\Monkey's Audio\MAC.exe
Дополнительные параметры : -v
TOC извлечённого CD
Трек | Старт | Длительность | Начальный сектор | Конечный сектор
---------------------------------------------------------------------
1 | 0:00.32 | 2:54.50 | 32 | 13131
2 | 2:55.07 | 4:52.35 | 13132 | 35066
3 | 7:47.42 | 3:15.13 | 35067 | 49704
4 | 11:02.55 | 4:54.65 | 49705 | 71819
5 | 15:57.45 | 4:02.10 | 71820 | 89979
6 | 19:59.55 | 3:04.27 | 89980 | 103806
7 | 23:04.07 | 2:54.38 | 103807 | 116894
8 | 25:58.45 | 3:45.05 | 116895 | 133774
9 | 29:43.50 | 3:23.27 | 133775 | 149026
10 | 33:07.02 | 5:41.43 | 149027 | 174644
Характеристики диапазона извлечения и сообщения об ошибках
Выбранный диапазон
Имя файла V:\The Police - Outlandos d'Amour (1978)\The Police - Outlandos d'Amour.wav
Пиковый уровень 100.0 %
Качество диапазона 100.0 %
CRC копии 12AD54A4
Копирование... OK
Ошибок не произошло
Конец отчёта
[Профиль] [ЛС]
Показать сообщения:    
Ответить на тему

Текущее время: 21-Сен 13:21

Часовой пояс: UTC + 3



Вы не можете начинать темы
Вы не можете отвечать на сообщения
Вы не можете редактировать свои сообщения
Вы не можете удалять свои сообщения
Вы не можете голосовать в опросах
Вы не можете прикреплять файлы к сообщениям
Вы не можете скачивать файлы