Сегодня идет свободное скачивание без начисления Download

Gary Glitter - Rock & Pop Legends (1995) Compilation [FLAC|Lossless|image + .cue] <Rock, Glam>

Ответить на тему
 
Автор Сообщение

Bot ®

Стаж: 2 года 8 месяцев

Сообщений: 8

Создавать темы 13-Июн-2018 18:30

[Цитировать]

Gary Glitter - Rock & Pop Legends (1995) Compilation - Жанр: Rock, Glam
Издание: Disky ‎– RPCD 009
Источник: oldvinil как бСССР
Продолжительность: 00:54:27
Кодек: FLAC
Битрейт: Lossless
Тип рипа: image + .cue
Треклист:
1. I Love You Love Me Love
2. I'm The Leader Of The Gang
3. Always Yours
4. Do You Wanna Touch Me? (Oh Yeah)
5. Goodbye My Love
6. Hello Hello I'm Back Again
7. Oh Yes! You're Beautiful
8. Remember Me This Way
9. Rock & Roll (Part 1)
10. Angel Face
11. You Belong To Me
12. Doing Alright With The Boys
13. Love Like You And Me
14. I Didn't Know I Loved You (Till I Saw You Rock 'n' Roll)
15. People Like You And People Like Me
16. Rock'& Roll (Part 2)
Дополнительная информация:
cover, disk
Отчёт EAC:
Exact Audio Copy V1.3 from 2. September 2016
EAC extraction logfile from 14. May 2018, 11:07
Gary Glitter / Rock & POP LEGENDS Gary Glitter
Used drive : ASUS DRW-24B3ST Adapter: 1 ID: 1
Read mode : Secure
Utilize accurate stream : Yes
Defeat audio cache : Yes
Make use of C2 pointers : No
Read offset correction : 6
Overread into Lead-In and Lead-Out : No
Fill up missing offset samples with silence : Yes
Delete leading and trailing silent blocks : No
Null samples used in CRC calculations : Yes
Used interface : Native Win32 interface for Win NT & 2000
Used output format : User Defined Encoder
Selected bitrate : 768 kBit/s
Quality : High
Add ID3 tag : No
Command line compressor : C:\Program Files (x86)\Exact Audio Copy\FLAC\FLAC.EXE
Additional command line options : -8 -V -T "TITLE=%title%" -T "ARTIST=%artist%" -T "ALBUMARTIST=%albumartist%" -T "ALBUM=%albumtitle%" -T "DATE=%year%" -T "TRACKNUMBER=%tracknr%" -T "TRACKTOTAL=%numtracks%" -T "GENRE=%genre%" -T "COMMENT=%comment%" -T "PERFORMER=%albuminterpret%" -T "COMPOSER=%composer%" %source% -o %dest%
TOC of the extracted CD
Track | Start | Length | Start sector | End sector
---------------------------------------------------------
1 | 0:00.00 | 3:12.35 | 0 | 14434
2 | 3:12.35 | 3:29.45 | 14435 | 30154
3 | 6:42.05 | 3:24.68 | 30155 | 45522
4 | 10:06.73 | 3:19.32 | 45523 | 60479
5 | 13:26.30 | 3:51.45 | 60480 | 77849
6 | 17:18.00 | 3:21.45 | 77850 | 92969
7 | 20:39.45 | 3:53.33 | 92970 | 110477
8 | 24:33.03 | 4:20.60 | 110478 | 130037
9 | 28:53.63 | 3:00.02 | 130038 | 143539
10 | 31:53.65 | 3:00.03 | 143540 | 157042
11 | 34:53.68 | 3:30.15 | 157043 | 172807
12 | 38:24.08 | 3:14.65 | 172808 | 187422
13 | 41:38.73 | 3:18.40 | 187423 | 202312
14 | 44:57.38 | 3:24.35 | 202313 | 217647
15 | 48:21.73 | 3:05.57 | 217648 | 231579
16 | 51:27.55 | 3:00.03 | 231580 | 245082
Range status and errors
Selected range
Filename F:\бСССР\0 NEW\Gary Glitter - Rock & POP LEGENDS Gary Glitter.wav
Peak level 98.0 %
Extraction speed 8.0 X
Range quality 100.0 %
Test CRC EFB94D75
Copy CRC EFB94D75
Copy OK
No errors occurred
AccurateRip summary
Track 1 accurately ripped (confidence 2) [157B5666] (AR v2)
Track 2 accurately ripped (confidence 2) [DB54B04A] (AR v2)
Track 3 accurately ripped (confidence 2) [2FEE1E4E] (AR v2)
Track 4 accurately ripped (confidence 2) [A99F28A7] (AR v2)
Track 5 accurately ripped (confidence 2) [251D0B47] (AR v2)
Track 6 accurately ripped (confidence 2) [C645C7E8] (AR v2)
Track 7 accurately ripped (confidence 2) [338439AC] (AR v2)
Track 8 accurately ripped (confidence 2) [DD16774A] (AR v2)
Track 9 accurately ripped (confidence 2) [51113E1F] (AR v2)
Track 10 accurately ripped (confidence 2) [25654C63] (AR v2)
Track 11 accurately ripped (confidence 2) [3D2D1F86] (AR v2)
Track 12 accurately ripped (confidence 2) [6E5BD895] (AR v2)
Track 13 accurately ripped (confidence 2) [748CD617] (AR v2)
Track 14 accurately ripped (confidence 2) [A3FBBFF2] (AR v2)
Track 15 accurately ripped (confidence 2) [8441BC5D] (AR v2)
Track 16 accurately ripped (confidence 2) [D4B6E031] (AR v2)
All tracks accurately ripped
End of status report
---- CUETools DB Plugin V2.1.6
[CTDB TOCID: WtF3LXFz6WCRxSWKMr24IN3N9ao-] found
Submit result: WtF3LXFz6WCRxSWKMr24IN3N9ao- has been confirmed
Track | CTDB Status
1 | (13/13) Accurately ripped
2 | (13/13) Accurately ripped
3 | (13/13) Accurately ripped
4 | (13/13) Accurately ripped
5 | (13/13) Accurately ripped
6 | (13/13) Accurately ripped
7 | (13/13) Accurately ripped
8 | (13/13) Accurately ripped
9 | (13/13) Accurately ripped
10 | (13/13) Accurately ripped
11 | (13/13) Accurately ripped
12 | (13/13) Accurately ripped
13 | (13/13) Accurately ripped
14 | (13/13) Accurately ripped
15 | (13/13) Accurately ripped
16 | (13/13) Accurately ripped
==== Log checksum 7B9908E07EEC04AA38B697C3785A897F9883A7F9829CE008A7E14CB5DA423E65 ====
Cue Sheet (.cue):
REM GENRE Oldies
REM DATE 1995
REM DISCID D20CC310
REM COMMENT "ExactAudioCopy v1.3"
PERFORMER "Gary Glitter"
TITLE "Rock & POP LEGENDS Gary Glitter"
REM COMPOSER ""
FILE "Gary Glitter - Rock & POP LEGENDS Gary Glitter.flac" WAVE
TRACK 01 AUDIO
TITLE "01 I lovo you love me love"
PERFORMER "Gary Glitter"
REM COMPOSER ""
INDEX 01 00:00:00
TRACK 02 AUDIO
TITLE "02 I`m the leader of the Gang"
PERFORMER "Gary Glitter"
REM COMPOSER ""
INDEX 01 03:12:35
TRACK 03 AUDIO
TITLE "03 Always yours"
PERFORMER "Gary Glitter"
REM COMPOSER ""
INDEX 01 06:42:05
TRACK 04 AUDIO
TITLE "04 Do you wanna touch me? (Oh yeah)"
PERFORMER "Gary Glitter"
REM COMPOSER ""
INDEX 01 10:06:73
TRACK 05 AUDIO
TITLE "05 Goodbye my love"
PERFORMER "Gary Glitter"
REM COMPOSER ""
INDEX 01 13:26:30
TRACK 06 AUDIO
TITLE "06 Hello hello I`m back again"
PERFORMER "Gary Glitter"
REM COMPOSER ""
INDEX 01 17:18:00
TRACK 07 AUDIO
TITLE "07 Oh yest You`re beautiful"
PERFORMER "Gary Glitter"
REM COMPOSER ""
INDEX 01 20:39:45
TRACK 08 AUDIO
TITLE "08 Remember me this way"
PERFORMER "Gary Glitter"
REM COMPOSER ""
INDEX 01 24:33:03
TRACK 09 AUDIO
TITLE "09 Rock & Roll (Part1)"
PERFORMER "Gary Glitter"
REM COMPOSER ""
INDEX 01 28:53:63
TRACK 10 AUDIO
TITLE "10 Angel face"
PERFORMER "Gary Glitter"
REM COMPOSER ""
INDEX 01 31:53:65
TRACK 11 AUDIO
TITLE "11 You belang to me"
PERFORMER "Gary Glitter"
REM COMPOSER ""
INDEX 01 34:53:68
TRACK 12 AUDIO
TITLE "12 Doing alright with the boys"
PERFORMER "Gary Glitter"
REM COMPOSER ""
INDEX 01 38:24:08
TRACK 13 AUDIO
TITLE "13 Love like you and me"
PERFORMER "Gary Glitter"
REM COMPOSER ""
INDEX 01 41:38:73
TRACK 14 AUDIO
TITLE "14 I didn`t know i loved you till i saw you rock`n roll"
PERFORMER "Gary Glitter"
REM COMPOSER ""
INDEX 01 44:57:38
TRACK 15 AUDIO
TITLE "15 Peaple likeyou and peaple like me"
PERFORMER "Gary Glitter"
REM COMPOSER ""
INDEX 01 48:21:73
TRACK 16 AUDIO
TITLE "16 Rock & Roll (Part2)"
PERFORMER "Gary Glitter"
REM COMPOSER ""
INDEX 01 51:27:55
Отчёт auCDtect Task manager:
-----------------------
DON'T MODIFY THIS FILE
-----------------------
PERFORMER: auCDtect Task Manager, ver. 1.6.0 RC1 build 1.6.0.1
Copyright (c) 2008-2010 y-soft. All rights reserved
http://y-soft.org
ANALYZER: auCDtect: CD records authenticity detector, version 0.8.2
Copyright (c) 2004 Oleg Berngardt. All rights reserved.
Copyright (c) 2004 Alexander Djourik. All rights reserved.
FILE: Gary Glitter - Rock & POP LEGENDS Gary Glitter.flac
Size: 363852638 Hash: E2A6977404D41AEB1BE6550138445427 Accuracy: -m0
Conclusion: CDDA 100%
Signature: 12B8CEC8708CAB4605958447B0E2A246311914FF
-

Поглощение/вытеснение
Только с согласия релизера

gvm55
Время раздачи: c 09:00 до 20:00 (до появления первых 3-5 скачавших)
[Профиль] [ЛС]
Показать сообщения:    
Ответить на тему

Текущее время: 23-Окт 23:00

Часовой пояс: UTC + 3



Вы не можете начинать темы
Вы не можете отвечать на сообщения
Вы не можете редактировать свои сообщения
Вы не можете удалять свои сообщения
Вы не можете голосовать в опросах
Вы не можете прикреплять файлы к сообщениям
Вы не можете скачивать файлы