Сегодня идет свободное скачивание без начисления Download

Грань отражений / Mirror's Edge (2009) [H.264/1080p-LQ] [Gameplay]

Ответить на тему
 
Автор Сообщение

Bot ®

Стаж: 4 года

Сообщений: 12

Создавать темы 20-Июн-2018 11:00

[Цитировать]

Грань отражений / Mirror's Edge (2009) [H.264/1080p-LQ] [Gameplay] - Производство: EA Digital Illusions Creative Entertainment
Жанр: Боевик, Приключения
Описание:
Действие игры происходит в антиутопичном городе не очень далёкого будущего, в котором средства связи контролируются правоохранительными органами. Единственный способ передать сообщение, избежав надзора, — прибегнуть к услугам Бегущих, к которым принадлежит и главная героиня игры, Фейт.
Игровой процесс представляет собой экшен от первого лица, но заточенный совсем не под бой. Его главным элементом являются паркурные навыки, с помощью которых игрок будет продвигаться по уровню
Возраст: 16+ (зрителям, достигшим 16 лет)
Дата мировой премьеры игры: 13 января 2009
Дата российской премьеры игры: 21 января 2009
Продолжительность: 02:09:45
Качество видео: HD
Перевод: Дублированный
Язык: Русский
Субтитры: нет
Видео: AVC/H.264, 1920x1080, ~10000 Kbps, 60 FPS!
Аудио: AC3, 2 ch, 224 Kbps
Дополнительная информация:
Игра пройдена не в стиле speedrun (скоростное прохождение игры), и не в стиле полного показа всех секретов и показа всех пасхалок. Это прохождение самым простым вариантом маршрута и без показа где лежат сумки. Данное виде будет интересно тем кто не играл или ни может этого сделать. Хотя тем кто играл тоже будет интересно посмотреть, вспомнить...
Захват видео выполнялся программой Fraps, с дальнейшим перекодированием. Для просмотра на ПК рекомендую КМплеер.-Саму игру можно скачать тут -> Mirror's Edge (2009) [Ru/En] (1.1.0.0/dlc) Repack R.G. Механики [Reflected Edition]
Отдельно музыку из игры тут -> MP3 - Flac.
Mediainfo:
General
Unique ID : 212933853769036677393024815971006319737 (0xA031918A2EDC945A9DFC7AA9023A8C79)
Complete name : Mirror's Edge (2009).mkv
Format : Matroska
Format version : Version 4 / Version 2
File size : 9.21 GiB
Duration : 2 h 9 min
Overall bit rate : 10.2 Mb/s
Encoded date : UTC 2018-03-26 06:04:12
Writing application : mkvmerge v8.3.0 ('Over the Horizon') 32bit
Writing library : libebml v1.3.1 + libmatroska v1.4.2 / Lavf58.10.100
Video
ID : 1
Format : AVC
Format/Info : Advanced Video Codec
Format profile : High@L5
Format settings : CABAC / 4 Ref Frames
Format settings, CABAC : Yes
Format settings, ReFrames : 4 frames
Codec ID : V_MPEG4/ISO/AVC
Duration : 2 h 9 min
Bit rate : 10 000 kb/s
Width : 1 920 pixels
Height : 1 080 pixels
Display aspect ratio : 16:9
Frame rate mode : Constant
Frame rate : 60.000 FPS
Color space : YUV
Chroma subsampling : 4:2:0
Bit depth : 8 bits
Scan type : Progressive
Bits/(Pixel*Frame) : 0.080
Stream size : 9.01 GiB (98%)
Writing library : x264 core 155 r2901
Encoding settings : cabac=1 / ref=4 / deblock=1:0:0 / analyse=0x3:0x133 / me=umh / subme=9 / psy=1 / psy_rd=1.00:0.00 / mixed_ref=1 / me_range=16 / chroma_me=1 / trellis=2 / 8x8dct=1 / cqm=0 / deadzone=21,11 / fast_pskip=0 / chroma_qp_offset=-2 / threads=12 / lookahead_threads=1 / sliced_threads=0 / nr=0 / decimate=0 / interlaced=0 / bluray_compat=0 / constrained_intra=0 / bframes=3 / b_pyramid=2 / b_adapt=2 / b_bias=0 / direct=3 / weightb=1 / open_gop=0 / weightp=2 / keyint=600 / keyint_min=60 / scenecut=40 / intra_refresh=0 / rc_lookahead=40 / rc=abr / mbtree=1 / bitrate=10000 / ratetol=1.0 / qcomp=0.60 / qpmin=10 / qpmax=69 / qpstep=4 / vbv_maxrate=12500 / vbv_bufsize=24000 / nal_hrd=none / filler=0 / ip_ratio=1.40 / aq=3:1.00
Default : Yes
Forced : Yes
Audio
ID : 2
Format : AC-3
Format/Info : Audio Coding 3
Codec ID : A_AC3
Duration : 2 h 9 min
Bit rate mode : Constant
Bit rate : 224 kb/s
Channel(s) : 2 channels
Channel positions : Front: L R
Sampling rate : 48.0 kHz
Frame rate : 31.250 FPS (1536 SPF)
Bit depth : 16 bits
Compression mode : Lossy
Stream size : 208 MiB (2%)
Writing library : Lavc58.14.100 ac3_fixed
Language : Russian
Service kind : Complete Main
Default : Yes
Forced : Yes
Скриншоты:
Время раздачи: 24/7 (вечно!)
[Профиль] [ЛС]
Показать сообщения:    
Ответить на тему

Текущее время: 21-Сен 15:00

Часовой пояс: UTC + 3



Вы не можете начинать темы
Вы не можете отвечать на сообщения
Вы не можете редактировать свои сообщения
Вы не можете удалять свои сообщения
Вы не можете голосовать в опросах
Вы не можете прикреплять файлы к сообщениям
Вы не можете скачивать файлы