Сегодня идет свободное скачивание без начисления Download

Аферисты поневоле / The Con Is On (2018) WEB-DLRip [Line] [AD]

Ответить на тему
Статистика раздачи
Размер:  1,34 GB   |    Зарегистрирован:  2 месяца 9 дней   |    Скачан:  2 раза
Сидов:  229  [  0 KB/s  ]   Личеров:  33  [  0 KB/s  ]   Подробная статистика пиров
 
   
 
 
Автор Сообщение

Bot ®

Стаж: 4 года 3 месяца

Сообщений: 9

Создавать темы 11-Июл-2018 19:30

[Цитировать]

Аферисты поневоле / The Con Is On (2018) WEB-DLRip- Производство: США, Великобритания / Autumn Productions, BondIt, Buffalo 8 Productions
Жанр: Комедия
Режиссер: Джеймс Окли
Актеры: Паркер Поузи, Элис Ив, Мэгги Кью, София Вергара, Ума Турман, Криспин Гловер, Тим Рот, Эшли Уильямс, Мелисса Сью Андерсон, Стивен Фрай
Описание:
Британская пара, задолжавшая неприлично много денег опасному мафиози, сбегает в Лос-Анджелес. Супруги твердо намерены поправить свои дела: украсть роскошные драгоценности, расплатиться с долгами и начать безбедную жизнь с чистого листа. В общем, план изначально выглядит весьма сомнительно.

Возраст: 18+ (зрителям, достигшим 18 лет. запрещено для детей)
Рейтинг MPAA: R (лицам до 17 лет обязательно присутствие взрослого)
Дата мировой премьеры: 25 мая 2018
Дата премьеры в России: 14 июня 2018
Релиз на DVD: 30 июля 2018

Продолжительность: 01:35:00
Качество видео: WEB-DLRip
Перевод: Дублированный (чистый звук)
Субтитры: Отсутствуют
Реклама: Присутствуют вставки текстовой рекламы
Видео: XviD, 720x304, ~1619 Kbps
Аудио: AC-3, 2 ch, 384 Kbps
MediaInfo:
Общее
Полное имя : E:\NNM\Аферисты поневоле\The Con Is On 2018 WEB-DLRip.avi
Формат : AVI
Формат/Информация : Audio Video Interleave
Профиль формата : OpenDML
Размер файла : 1,34 Гбайт
Продолжительность : 1 ч. 35 м.
Общий поток : 2016 Кбит/сек
Видео
Идентификатор : 0
Формат : MPEG-4 Visual
Профиль формата : Advanced Simple@L5
Настройки формата : BVOP2 / Custom Matrix
Параметр BVOP формата : 2
Параметр QPel формата : Нет
Параметр GMC формата : Без точки перехода
Параметр матрицы формата : Выборочная
Идентификатор кодека : XVID
Идентификатор кодека/Подсказка : XviD
Продолжительность : 1 ч. 35 м.
Битрейт : 1619 Кбит/сек
Ширина : 720 пикселей
Высота : 304 пикселя
Соотношение сторон : 2,35:1
Частота кадров : 23,976 (24000/1001) кадра/сек
Цветовое пространство : YUV
Субдискретизация насыщенности : 4:2:0
Битовая глубина : 8 бит
Тип развёртки : Прогрессивная
Метод сжатия : С потерями
Бит/(Пиксели*Кадры) : 0.309
Размер потока : 1,07 Гбайт (80%)
Библиотека кодирования : XviD 1.2.1 (UTC 2008-12-04)
Аудио
Идентификатор : 1
Формат : AC-3
Формат/Информация : Audio Coding 3
Идентификатор кодека : 2000
Продолжительность : 1 ч. 35 м.
Вид битрейта : Постоянный
Битрейт : 384 Кбит/сек
Каналы : 2 канала
Расположение каналов : Front: L R
Частота : 48,0 КГц
Частота кадров : 31,250 кадров/сек (1536 SPF)
Битовая глубина : 16 бит
Метод сжатия : С потерями
Размер потока : 261 Мбайт (19%)
Выравнивание : Соединение по промежуткам
Продолжительность промежутка : 32 мс. (0,77 видеокадр)
ServiceKind/String : Complete Main
Скриншоты: Все одноименные релизы в КлубеВремя раздачи: 24/7 (до появления первых 3-5 скачавших)
[realmt.org].t1103440.torrent 
Торрент: Зарегистрирован [ 2018-07-11 19:30 ] · 1D367E843D836FE4AE22B3088A8F5F689CA31256

Скачать .torrent

Скачать

14 KB

Статус: проверено
Скачан: 2 раз
Размер: 1,34 GB
terms.php
Последние поблагодарившие
[Профиль] [ЛС]
Быстрый ответ

Имя:

      
Для отправки сообщений необходимо включить JavaScript
Показать сообщения:    
Ответить на тему

Текущее время: 21-Сен 14:44

Часовой пояс: UTC + 3



Вы можете начинать темы
Вы можете отвечать на сообщения
Вы не можете редактировать свои сообщения
Вы не можете удалять свои сообщения
Вы не можете голосовать в опросах
Вы не можете прикреплять файлы к сообщениям
Вы можете скачивать файлы