Сегодня идет свободное скачивание без начисления Download

Наследие охотника на белохвостого оленя / The Legacy of a Whitetail Deer Hunter (2018) WEBRip [H.264/720p-LQ] [MVO] [AD]

Ответить на тему
Статистика раздачи
Размер:  3,07 GB   |    Зарегистрирован:  2 месяца 9 дней   |    Скачан:  0 раз
Сидов:  43  [  0 KB/s  ]   Личеров:  11  [  0 KB/s  ]   Подробная статистика пиров
 
   
 
 
Автор Сообщение

Bot ®

Стаж: 2 года 10 месяцев

Сообщений: 6

Создавать темы 11-Июл-2018 19:30

[Цитировать]

Наследие охотника на белохвостого оленя / The Legacy of a Whitetail Deer Hunter (2018) WEBRip [H.264/720p-LQ]- Производство: США / Rough House Pictures, Scott Rudin Productions
Жанр: Комедия
Режиссер: Джоди Хилл
Актеры: Джош Бролин, Кэрри Кун, Дэнни МакБрайд, Скут МакНэри, Монтана Джордан, Уилльям Ковбой Рид ...
Описание:
Страстный охотник и неудавшийся семьянин в разводе Бак пытается наладить отношения со своим сыном Джейденом во время их первой совместной вылазки в лес. Объединившись с лучшим другом-оператором Дином, Бак надеется приобщить мальчика к «священной» семейной традиции – охоте на оленей, которая не вызывает у самого Джейдена никакого интереса.

Дата мировой премьеры: 10 марта 2018
Продолжительность: 01:22:44
Качество видео: WEBRip
Перевод: Многоголосый закадровый, любительский (MUZOBOZ)
Субтитры: Отсутствуют
Реклама: Присутствуют вставки текстовой рекламы
Видео: H.264/AVC, 1280x532, ~4823 Kbps
Аудио: AC-3, 2 ch, 384 Kbps
MediaInfo:
Общее
Полное имя : E:\NNM\Наследие охотника на белохвостого оленя\The Legacy of a Whitetail Deer Hunter 2018 WEBRip 720p-LQ.mkv
Формат : Matroska
Версия формата : Version 2
Размер файла : 3,07 Гбайт
Продолжительность : 1 ч. 22 м.
Режим общего битрейта : Переменный
Общий поток : 5313 Кбит/сек
Программа кодирования : libmatroska 1.4.1
Видео
Идентификатор : 1
Формат : AVC
Формат/Информация : Advanced Video Codec
Профиль формата : High@L4.1
Настройки формата : CABAC / 4 Ref Frames
Параметр CABAC формата : Да
Параметр RefFrames формата : 4 кадра
Идентификатор кодека : V_MPEG4/ISO/AVC
Продолжительность : 1 ч. 22 м.
Вид битрейта : Переменный
Битрейт : 4823 Кбит/сек
Максимальный битрейт : 5500 Кбит/сек
Ширина : 1280 пикселей
Высота : 532 пикселя
Соотношение сторон : 2,40:1
Режим частоты кадров : Постоянный
Частота кадров : 23,976 (24000/1001) кадра/сек
Стандарт вещания : Component
Цветовое пространство : YUV
Субдискретизация насыщенности : 4:2:0
Битовая глубина : 8 бит
Тип развёртки : Прогрессивная
Бит/(Пиксели*Кадры) : 0.295
Размер потока : 2,79 Гбайт (91%)
Default : Нет
Forced : Нет
Цветовой диапазон : Limited
Основные цвета : BT.709
Характеристики трансфера : BT.709
Коэффициенты матрицы : BT.709
Аудио
Идентификатор : 2
Формат : AC-3
Формат/Информация : Audio Coding 3
Идентификатор кодека : A_AC3
Продолжительность : 1 ч. 22 м.
Вид битрейта : Постоянный
Битрейт : 384 Кбит/сек
Каналы : 2 канала
Расположение каналов : Front: L R
Частота : 48,0 КГц
Частота кадров : 31,250 кадров/сек (1536 SPF)
Битовая глубина : 16 бит
Метод сжатия : С потерями
Размер потока : 227 Мбайт (7%)
ServiceKind/String : Complete Main
Default : Нет
Forced : Нет
Скриншоты: Все одноименные релизы в КлубеВремя раздачи: 24/7 (до появления первых 3-5 скачавших)
[realmt.org].t1103441.torrent 
Торрент: Зарегистрирован [ 2018-07-11 19:30 ] · B4A227CB863432A2335DA53667E2F3238E552FB0

Скачать .torrent

Скачать

16 KB

Статус: проверено
Скачан: 0 раз
Размер: 3,07 GB
terms.php
Последние поблагодарившие
[Профиль] [ЛС]
Быстрый ответ

Имя:

      
Для отправки сообщений необходимо включить JavaScript
Показать сообщения:    
Ответить на тему

Текущее время: 21-Сен 15:28

Часовой пояс: UTC + 3



Вы можете начинать темы
Вы можете отвечать на сообщения
Вы не можете редактировать свои сообщения
Вы не можете удалять свои сообщения
Вы не можете голосовать в опросах
Вы не можете прикреплять файлы к сообщениям
Вы можете скачивать файлы