Сегодня идет свободное скачивание без начисления Download

На вкус и цвет / Les gouts et les couleurs (2018) WEBRip [H.264/720p-LQ] [MVO] [AD]

Ответить на тему
Статистика раздачи
Размер:  3,22 GB   |    Зарегистрирован:  2 месяца 9 дней   |    Скачан:  0 раз
Сидов:  39  [  0 KB/s  ]   Личеров:  7  [  0 KB/s  ]   Подробная статистика пиров
 
   
 
 
Автор Сообщение

Bot ®

Стаж: 3 года 10 месяцев

Сообщений: 8

Создавать темы 11-Июл-2018 19:30

[Цитировать]

На вкус и цвет / Les gouts et les couleurs (2018) WEBRip [H.264/720p-LQ]- Производство: Франция / Incognita Films
Жанр: Комедия
Режиссер: Мириам Азиза
Актеры: Сара Штерн, Жан-Кристоф Фолли, Джулия Пьятон, Катрин Жакоб, Ришар Берри, Арье Эльмале, Клементин Пуадац, Стефан Дебак, Дэвид Ури, Лайонел Лингельсер
Описание:
В центре данной комедийной ленты находится далеко непростая история девушки Симоны. Героиня пытается поведать своему весьма религиозному семейству свой секрет. Но неожиданно героиня понимает, что её начинает всерьёз тянуть к повару одного её очень любимого ресторана.

Дата мировой премьеры: 24 июня 2018
Продолжительность: 01:34:46
Качество видео: WEBRip
Перевод: Многоголосый закадровый, любительский (Синема УС)
Субтитры: Отсутствуют
Реклама: Присутствуют вставки текстовой рекламы
Видео: H.264/AVC, 1280x690, ~4381 Kbps
Аудио: AC-3, 2 ch, 384 Kbps
MediaInfo:
Общее
Полное имя : E:\NNM\На вкус и цвет\To each her own 2018 WEBRip 720p-LQ.mkv
Формат : Matroska
Версия формата : Version 2
Размер файла : 3,22 Гбайт
Продолжительность : 1 ч. 34 м.
Режим общего битрейта : Переменный
Общий поток : 4861 Кбит/сек
Программа кодирования : libmatroska 1.4.1
Видео
Идентификатор : 1
Формат : AVC
Формат/Информация : Advanced Video Codec
Профиль формата : High@L4.1
Настройки формата : CABAC / 4 Ref Frames
Параметр CABAC формата : Да
Параметр RefFrames формата : 4 кадра
Идентификатор кодека : V_MPEG4/ISO/AVC
Продолжительность : 1 ч. 34 м.
Вид битрейта : Переменный
Битрейт : 4381 Кбит/сек
Максимальный битрейт : 5000 Кбит/сек
Ширина : 1280 пикселей
Высота : 690 пикселей
Соотношение сторон : 1,85:1
Режим частоты кадров : Постоянный
Частота кадров : 23,976 (24000/1001) кадра/сек
Стандарт вещания : Component
Цветовое пространство : YUV
Субдискретизация насыщенности : 4:2:0
Битовая глубина : 8 бит
Тип развёртки : Прогрессивная
Бит/(Пиксели*Кадры) : 0.207
Размер потока : 2,90 Гбайт (90%)
Default : Нет
Forced : Нет
Цветовой диапазон : Limited
Основные цвета : BT.709
Характеристики трансфера : BT.709
Коэффициенты матрицы : BT.709
Аудио
Идентификатор : 2
Формат : AC-3
Формат/Информация : Audio Coding 3
Идентификатор кодека : A_AC3
Продолжительность : 1 ч. 34 м.
Вид битрейта : Постоянный
Битрейт : 384 Кбит/сек
Каналы : 2 канала
Расположение каналов : Front: L R
Частота : 48,0 КГц
Частота кадров : 31,250 кадров/сек (1536 SPF)
Битовая глубина : 16 бит
Метод сжатия : С потерями
Размер потока : 260 Мбайт (8%)
ServiceKind/String : Complete Main
Default : Нет
Forced : Нет
Скриншоты: Все одноименные релизы в КлубеВремя раздачи: 24/7 (до появления первых 3-5 скачавших)
[realmt.org].t1103442.torrent 
Торрент: Зарегистрирован [ 2018-07-11 19:30 ] · 5A64AE9F202563A96D8AF8C2726537750AD6F623

Скачать .torrent

Скачать

17 KB

Статус: проверено
Скачан: 0 раз
Размер: 3,22 GB
terms.php
Последние поблагодарившие
[Профиль] [ЛС]
Быстрый ответ

Имя:

      
Для отправки сообщений необходимо включить JavaScript
Показать сообщения:    
Ответить на тему

Текущее время: 21-Сен 15:06

Часовой пояс: UTC + 3



Вы можете начинать темы
Вы можете отвечать на сообщения
Вы не можете редактировать свои сообщения
Вы не можете удалять свои сообщения
Вы не можете голосовать в опросах
Вы не можете прикреплять файлы к сообщениям
Вы можете скачивать файлы