Сегодня идет свободное скачивание без начисления Download

(Rock, Adult Contemporary) Michael Bolton - The Early Years (1974 -1976) - 1991, FLAC (image+.cue), lossless

Ответить на тему
 
Автор Сообщение

Bot ®

Стаж: 3 года 10 месяцев

Сообщений: 12

Создавать темы 11-Июл-2018 20:15

[Цитировать]

Michael Bolton - The Early Years (1974 -1976)- Жанр: Rock, Adult Contemporary
Год выпуска диска: 1991
Производитель диска: USA (BMG)
Аудио кодек: FLAC
Тип рипа: image+.cue
Битрейт аудио: lossless
Продолжительность: 00:47:23
-01. Lost In The City 03:41
02. Everybody Needs A Reason 03:46
03. Your Love 03:19
04. It's Just A Feeling 03:53
05. Dream While You Can 05:26
06. Take Me As I Am 03:38
07. These Eyes 03:37
08. You Mean More To Me 03:40
09. If I Had Your Love 03:51
10. Give Me A Reason 03:48
11. Tell Me How You Feel 03:21
12. Time Is On My Side 05:18-Allan MacMillan - String Arrangements
Wayne Perkins - Arranger
Michael Bolotin Arranger, Producer, Performer, Vocals, Main Performer
LOG
Exact Audio Copy V0.99 prebeta 4 from 23. January 2008
EAC extraction logfile from 16. September 2008, 10:22
Michael Bolton / The Early Years (1974 -1976)
Used drive : TSSTcorpCDDVDW SE-S204N Adapter: 0 ID: 0
Read mode : Secure
Utilize accurate stream : Yes
Defeat audio cache : Yes
Make use of C2 pointers : No
Read offset correction : 6
Overread into Lead-In and Lead-Out : No
Fill up missing offset samples with silence : Yes
Delete leading and trailing silent blocks : No
Null samples used in CRC calculations : Yes
Used interface : Installed external ASPI interface
Used output format : User Defined Encoder
Selected bitrate : 128 kBit/s
Quality : High
Add ID3 tag : No
Command line compressor : C:\Program Files\FLAC\flac.exe
Additional command line options : -8 -V -T "ARTIST=%a" -T "TITLE=%t" -T "ALBUM=%g" -T "DATE=%y" -T "TRACKNUMBER=%n" -T "GENRE=%m" -T "COMMENT=EAC FLAC -8" %s
TOC of the extracted CD
Track | Start | Length | Start sector | End sector
---------------------------------------------------------
1 | 0:00.00 | 3:41.15 | 0 | 16589
2 | 3:41.15 | 3:46.37 | 16590 | 33576
3 | 7:27.52 | 3:19.13 | 33577 | 48514
4 | 10:46.65 | 3:53.05 | 48515 | 65994
5 | 14:39.70 | 5:26.40 | 65995 | 90484
6 | 20:06.35 | 3:38.72 | 90485 | 106906
7 | 23:45.32 | 3:37.55 | 106907 | 123236
8 | 27:23.12 | 3:40.18 | 123237 | 139754
9 | 31:03.30 | 3:51.47 | 139755 | 157126
10 | 34:55.02 | 3:48.60 | 157127 | 174286
11 | 38:43.62 | 3:21.20 | 174287 | 189381
12 | 42:05.07 | 5:18.03 | 189382 | 213234
Range status and errors
Selected range
Filename J:\TTT\Michael Bolton - The Early Years[rutracker.org]\Michael Bolton - The Early Years (1974 -1976).wav
Peak level 69.3 %
Range quality 99.9 %
Test CRC C7B0AE0D
Copy CRC C7B0AE0D
Copy OK
No errors occurred
AccurateRip summary
Track 1 not present in database
Track 2 not present in database
Track 3 not present in database
Track 4 not present in database
Track 5 not present in database
Track 6 not present in database
Track 7 not present in database
Track 8 not present in database
Track 9 not present in database
Track 10 not present in database
Track 11 not present in database
Track 12 not present in database
None of the tracks are present in the AccurateRip database
End of status report
[Профиль] [ЛС]
Показать сообщения:    
Ответить на тему

Текущее время: 21-Сен 14:43

Часовой пояс: UTC + 3



Вы не можете начинать темы
Вы не можете отвечать на сообщения
Вы не можете редактировать свои сообщения
Вы не можете удалять свои сообщения
Вы не можете голосовать в опросах
Вы не можете прикреплять файлы к сообщениям
Вы не можете скачивать файлы