Сегодня идет свободное скачивание без начисления Download

Древняя песнь любви / Shang gu qing ge / A Life Time Love (2017) HDTVRip [H.264/720p-LQ] (сезон 1, серии 1-8 из 54) STAR-TREK (обновляемая)

Ответить на тему
 
Автор Сообщение

Bot ®

Стаж: 9 месяцев 21 день

Сообщений: 4

Создавать темы 11-Июл-2018 22:00

[Цитировать]

Древняя песнь любви / Shang gu qing ge / A Life Time Love (2017) HDTVRip [H.264/720p-LQ] (сезон 1, серии 1-8 из 54) STAR-TREK (обновляемая - Производство: Китай
Жанр: фэнтези, драма, мелодрама
Режиссер: Цай Цзин Шэн
Актеры: Виктория Сон, Шэн И Лунь, Хуан Сяо Мин, Чжан Ли, Чжай Тянь Линь, Ло Юнь Си, Лю Фань Фэй, Шэнь Тай и др.
Описание:
Издавна Жо Цзян был самым слабым и угасающим племенем, но под предводительством Чи Юня стремительно встал на ноги и укрепился. Но есть и другая сторона медали - Жо Цзян также стал мишенью порицания и осуждения. Однажды против Чи задумали недоброе и чуть не лишили его жизни. Его жизнь спасла прекрасная девушка - принцесса Сюянь Ян Жо. Она закрыла его своим телом и тем самым спасла от смертельного удара. Но после этого случая девушка перестала узнавать Чи Юня...

Продолжительность: ~00:35:00 серия
Качество видео: HDTVRip
Перевод: Одноголосый закадровый, любительский - STAR-TREK
Субтитры: китайские (неотключаемые)
Видео: AVC/H.264, 1280х720 (16:9), ~1803 Kbps
Аудио: AAC, 2 ch, 204 Kbps
Mediainfo:
General
Unique ID : 130882535070251616362987113279001521886 (0x62770F317D7FDBEBE6750D3A8B5CEEDE)
Complete name : Z:\Dorama\A.Life.Time.Love.S01.720p.STAR-TREK\A.Life.Time.Love.S01.E01.720p.STAR-TREK.mkv
Format : Matroska
Format version : Version 4 / Version 2
File size : 482 MiB
Duration : 33 min 34 s
Overall bit rate : 2 006 kb/s
Encoded date : UTC 2018-07-10 07:49:48
Writing application : mkvmerge v24.0.0 ('Beyond The Pale') 64-bit
Writing library : libebml v1.3.6 + libmatroska v1.4.9
Video
ID : 1
Format : AVC
Format/Info : Advanced Video Codec
Format profile : High@L3.1
Format settings : CABAC / 4 Ref Frames
Format settings, CABAC : Yes
Format settings, ReFrames : 4 frames
Codec ID : V_MPEG4/ISO/AVC
Duration : 33 min 34 s
Bit rate : 1 803 kb/s
Width : 1 280 pixels
Height : 720 pixels
Display aspect ratio : 16:9
Frame rate mode : Constant
Frame rate : 25.000 FPS
Color space : YUV
Chroma subsampling : 4:2:0
Bit depth : 8 bits
Scan type : Progressive
Bits/(Pixel*Frame) : 0.078
Stream size : 432 MiB (90%)
Writing library : x264 core 152 r2851 ba24899
Encoding settings : cabac=1 / ref=4 / deblock=1:2:2 / analyse=0x3:0x113 / me=hex / subme=2 / psy=1 / psy_rd=1.00:0.00 / mixed_ref=1 / me_range=16 / chroma_me=1 / trellis=0 / 8x8dct=1 / cqm=0 / deadzone=21,11 / fast_pskip=1 / chroma_qp_offset=0 / threads=22 / lookahead_threads=5 / sliced_threads=0 / nr=0 / decimate=1 / interlaced=0 / bluray_compat=0 / constrained_intra=0 / bframes=0 / weightp=2 / keyint=75 / keyint_min=7 / scenecut=0 / intra_refresh=0 / rc_lookahead=40 / rc=abr / mbtree=1 / bitrate=1803 / ratetol=1.0 / qcomp=0.60 / qpmin=10 / qpmax=51 / qpstep=4 / ip_ratio=0.91 / aq=1:1.00
Default : Yes
Forced : No
Audio
ID : 2
Format : AAC
Format/Info : Advanced Audio Codec
Format profile : LC
Codec ID : A_AAC-2
Duration : 33 min 34 s
Bit rate : 204 kb/s
Channel(s) : 2 channels
Channel positions : Front: L R
Sampling rate : 44.1 kHz
Frame rate : 43.066 FPS (1024 SPF)
Compression mode : Lossy
Stream size : 49.0 MiB (10%)
Default : Yes
Forced : No
Раздача ведётся путём добавления новых серий:
Раздача ведётся путём добавления новых серий; при каждом добавлении создаётся новый торрент. Чтобы начать докачку новой серии, пользователям необходимо сделать следующее:
(1) остановить скачивание,
(2) удалить старый торрент у себя из клиента (старые серии удалять не надо),
(3) скачать новый торрент и запустить его у себя в клиенте вместо старого, при этом указать клиенту путь в старую папку куда и должно происходить скачивание новых серий.
Ваш клиент при этом должен произвести хеширование (проверку) старой папки (если не производит сам - помогите ему сделать это), и будет докачивать только те серии которых у вас ещё нет. Старые серии при этом не удаляются, а продолжают раздаваться!
Eсли вы уже удалили старые серии, то предотвратить повторную закачку старых серий можно, отжав галочку в соответствующих местах при запуске нового торрента. По возможности, желательно не удалять старые серии как можно дольше чтобы релизёр не столько продолжал раздавать старые серии, а смог сконцентрироваться на новых.
Скриншоты:
Все одноименные релизы в КлубеВремя раздачи: 24/7 (круглосуточно) (до появления первых 3-5 скачавших)
[Профиль] [ЛС]
Показать сообщения:    
Ответить на тему

Текущее время: 21-Сен 15:36

Часовой пояс: UTC + 3



Вы не можете начинать темы
Вы не можете отвечать на сообщения
Вы не можете редактировать свои сообщения
Вы не можете удалять свои сообщения
Вы не можете голосовать в опросах
Вы не можете прикреплять файлы к сообщениям
Вы не можете скачивать файлы